<?xml version="1.0" standalone="no"?>
<!DOCTYPE svg PUBLIC "-//W3C//DTD SVG 1.1//EN" "http://www.w3.org/Graphics/SVG/1.1/DTD/svg11.dtd" >
<svg xmlns="http://www.w3.org/2000/svg" xmlns:xlink="http://www.w3.org/1999/xlink" version="1.1">
<metadata>
Created by FontForge 20201107 at Thu Aug 26 02:09:23 2021
 By 
Copyright 2019 The Big Shoulders Project Authors (https://github.com/xotypeco/big_shoulders)
</metadata>
<defs>
<font id="BigShouldersDisplay-ExtraBold" horiz-adv-x="886" >
  <font-face 
    font-family="Big Shoulders Display ExtraBold"
    font-weight="800"
    font-stretch="normal"
    units-per-em="2000"
    panose-1="0 0 0 0 0 0 0 0 0 0"
    ascent="1600"
    descent="-400"
    x-height="1200"
    cap-height="1600"
    bbox="-573 -431 2146 2410"
    underline-thickness="40"
    underline-position="-100"
    unicode-range="U+0020-FB02"
  />
<missing-glyph horiz-adv-x="1381" 
d="M86 0v1600h1209v-1600h-1209zM507 228h368l-184 325zM345 459l193 339l-193 340v-679zM1037 459v677l-193 -338zM691 1043l185 329h-370z" />
    <glyph glyph-name="fi" unicode="fi" horiz-adv-x="1056" 
d="M134 0v1004h-125v196h125v93q0 175 90 251t278 76q33 0 69.5 -4t69.5 -9v-189q-33 1 -68 1h-70q-55 0 -83 -26t-28 -80v-113h204v-196h-204v-1004h-258zM700 1391v209h277v-209h-277zM710 0v1200h258v-1200h-258z" />
    <glyph glyph-name="fl" unicode="fl" horiz-adv-x="1058" 
d="M134 0v1004h-125v196h125v93q0 175 90 251t278 76q33 0 69.5 -4t69.5 -9v-189q-33 1 -68 1h-70q-55 0 -83 -26t-28 -80v-113h204v-196h-204v-1004h-258zM711 0v1600h258v-1600h-258z" />
    <glyph glyph-name="f_f" unicode="ff" horiz-adv-x="1213" 
d="M134 0l-1 1004h-124v196h124v93q0 175 90.5 251t278.5 76q33 0 69.5 -4t69.5 -9v-189q-33 1 -68 1h-70q-55 0 -83.5 -26t-28.5 -80v-113h334v91q0 176 90 252t278 76q33 0 69.5 -4t69.5 -10v-189q-33 1 -68 1.5t-71 0.5q-54 0 -82 -26.5t-28 -80.5v-111h204v-196h-204
v-1006h-258v1006h-334l1 -1004h-258z" />
    <glyph glyph-name="f_f_i" unicode="ffi" horiz-adv-x="1647" 
d="M134 0l-1 1004h-124v196h124v93q0 175 90.5 251t278.5 76q33 0 69.5 -4t69.5 -9v-189q-33 1 -68 1h-70q-55 0 -83.5 -26t-28.5 -80v-113h334v91q0 176 90 252t278 76q33 0 69.5 -4t69.5 -10v-189q-33 1 -68 1.5t-71 0.5q-54 0 -82 -26.5t-28 -80.5v-111h204v-196h-204
v-1006h-258v1006h-334l1 -1004h-258zM1291 1391v209h277v-209h-277zM1301 0v1200h258v-1200h-258z" />
    <glyph glyph-name="f_f_l" unicode="ffl" horiz-adv-x="1649" 
d="M134 0l-1 1004h-124v196h124v93q0 175 90.5 251t278.5 76q33 0 69.5 -4t69.5 -9v-189q-33 1 -68 1h-70q-55 0 -83.5 -26t-28.5 -80v-113h334v91q0 176 90 252t278 76q33 0 69.5 -4t69.5 -10v-189q-33 1 -68 1.5t-71 0.5q-54 0 -82 -26.5t-28 -80.5v-111h204v-196h-204
v-1006h-258v1006h-334l1 -1004h-258zM1302 0v1600h258v-1600h-258z" />
    <glyph glyph-name=".notdef" horiz-adv-x="1381" 
d="M86 0v1600h1209v-1600h-1209zM507 228h368l-184 325zM345 459l193 339l-193 340v-679zM1037 459v677l-193 -338zM691 1043l185 329h-370z" />
    <glyph glyph-name=".null" horiz-adv-x="0" 
 />
    <glyph glyph-name="nonmarkingreturn" horiz-adv-x="666" 
 />
    <glyph glyph-name="space" unicode=" " horiz-adv-x="434" 
 />
    <glyph glyph-name="exclam" unicode="!" horiz-adv-x="477" 
d="M144 409l-35 809v382h260v-382l-36 -809h-189zM83 0v253h311v-253h-311z" />
    <glyph glyph-name="quotedbl" unicode="&#x22;" horiz-adv-x="739" 
d="M129 1071l-46 268v261h215v-261l-46 -268h-123zM487 1071l-46 268v261h215v-261l-46 -268h-123z" />
    <glyph glyph-name="numbersign" unicode="#" horiz-adv-x="1384" 
d="M164 0l95 430h-199l51 211h190l77 325h-198l49 211h191l95 423h257l-95 -423h196l95 423h257l-95 -423h193l-47 -211h-188l-76 -325h191l-51 -211h-183l-95 -430h-257l95 430h-196l-95 -430h-257zM559 641h195l77 325h-196z" />
    <glyph glyph-name="dollar" unicode="$" horiz-adv-x="882" 
d="M328 -211v201q-136 21 -196 107t-68 252q-1 39 -1 81t2 83.5t6 81.5h243q-4 -77 -4.5 -152.5t4.5 -140.5q5 -54 35.5 -81.5t92.5 -27.5q61 0 89 27.5t33 81.5q4 40 5.5 76t0 73t-5.5 78q-3 50 -24.5 88t-71.5 51l-149 38q-97 25 -153 72.5t-80.5 119.5t-27.5 170
q-1 49 -1 94.5t1 90.5q7 166 67.5 251t202.5 106v219h224v-219q134 -21 196 -106.5t68 -250.5q2 -46 1 -113t-4 -129h-248q3 72 4 144.5t-2 144.5q-2 53 -34.5 80t-90.5 27q-62 0 -91 -27t-35 -80q-5 -58 -5 -116t5 -116q5 -52 26.5 -88t75.5 -49l131 -31q103 -25 162 -74.5
t84.5 -123.5t28.5 -173q1 -33 1 -62.5t-0.5 -58t-2.5 -59.5q-6 -167 -68 -253.5t-202 -107.5v-199h-224z" />
    <glyph glyph-name="percent" unicode="%" horiz-adv-x="1271" 
d="M98 0l906 1600h181l-908 -1600h-179zM928 -11q-110 0 -171 59t-66 168q-1 46 -1.5 94.5t0 98t1.5 99.5q5 107 65.5 165t171.5 58t172 -58t67 -165q1 -37 1.5 -74.5t0.5 -74.5t-0.5 -72.5t-1.5 -70.5q-6 -108 -67 -167.5t-172 -59.5zM928 138q24 0 36.5 13.5t15.5 33.5
q3 28 4.5 73.5t1.5 98t-1.5 100.5t-4.5 81q-1 18 -14.5 31t-37.5 13q-23 0 -36.5 -13t-15.5 -31q-3 -45 -4.5 -113.5t0 -134.5t4.5 -105q3 -17 16 -32t36 -15zM310 867q-110 0 -171 59t-65 168q-2 46 -2.5 94.5t0 98t2.5 99.5q4 107 64.5 165t171.5 58t172 -58t67 -165
q1 -37 1.5 -74.5t0.5 -74.5t-0.5 -72.5t-1.5 -70.5q-6 -108 -67 -167.5t-172 -59.5zM310 1016q24 0 36.5 13.5t15.5 33.5q3 28 4.5 73.5t1.5 98t-1.5 100.5t-4.5 81q-1 18 -14 31t-38 13q-23 0 -36.5 -13t-14.5 -31q-4 -45 -5.5 -113.5t0 -134.5t5.5 -105q2 -17 15 -32
t36 -15z" />
    <glyph glyph-name="ampersand" unicode="&#x26;" horiz-adv-x="1163" 
d="M488 -18q-205 0 -297.5 85t-99.5 280q-2 49 -2 84t1.5 68t3.5 72q5 117 53.5 189t113.5 125q-42 92 -68.5 180.5t-35.5 170.5q-22 172 60.5 277t272.5 105q184 0 264 -95t62 -272q-8 -106 -59 -202.5t-145 -183.5q-11 -11 -23 -22t-25 -22q29 -53 62 -104.5t68 -102.5
q-2 43 -6.5 92.5t-11.5 103.5l208 1q8 -64 12.5 -142.5t5 -158.5t-4.5 -149q53 -64 99.5 -117t79.5 -91l-166 -159q-26 30 -53 60.5t-55 61.5q-30 -47 -74 -77t-104 -43.5t-136 -13.5zM494 188q44 0 73.5 12t47 38t26.5 66q-68 87 -133.5 178t-123.5 184q-16 -21 -27 -47
t-13 -59q-4 -39 -5.5 -67.5t-1 -62.5t2.5 -89q5 -75 42 -114t112 -39zM455 1016q49 43 78 83.5t42.5 78.5t17.5 73q16 90 -6 142.5t-97 52.5q-61 0 -85.5 -49t-19.5 -119q2 -58 21 -125t49 -137z" />
    <glyph glyph-name="quotesingle" unicode="'" horiz-adv-x="381" 
d="M129 1071l-46 268v261h215v-261l-46 -268h-123z" />
    <glyph glyph-name="parenleft" unicode="(" horiz-adv-x="554" 
d="M310 -400q-76 115 -132 274t-87 347t-31 387q0 178 27 362t82 348.5t141 281.5h184q-83 -227 -127 -485.5t-44 -514.5q0 -170 20 -344t58 -340.5t93 -315.5h-184z" />
    <glyph glyph-name="parenright" unicode=")" horiz-adv-x="554" 
d="M244 -400h-184q56 149 94 315.5t57.5 340.5t19.5 344q0 256 -43.5 514.5t-127.5 485.5h184q86 -117 141.5 -281.5t82 -348.5t26.5 -362q0 -199 -30.5 -387t-87 -347t-132.5 -274z" />
    <glyph glyph-name="asterisk" unicode="*" horiz-adv-x="507" 
d="M39 1331l130 61l-130 62l54 93l117 -82l-11 143h109l-13 -142l119 81l53 -93l-129 -62l129 -61l-53 -93l-119 81l13 -143h-109l11 141l-117 -79z" />
    <glyph glyph-name="plus" unicode="+" horiz-adv-x="1024" 
d="M415 304v328h-329v195h329v328h194v-328h328v-195h-328v-328h-194z" />
    <glyph glyph-name="comma" unicode="," horiz-adv-x="479" 
d="M114 -264l111 264h-142v258h313v-234l-147 -288h-135z" />
    <glyph glyph-name="hyphen" unicode="-" horiz-adv-x="827" 
d="M60 609v228h707v-228h-707z" />
    <glyph glyph-name="period" unicode="." horiz-adv-x="477" 
d="M83 0v253h311v-253h-311z" />
    <glyph glyph-name="slash" unicode="/" horiz-adv-x="778" 
d="M60 -400l400 2000h258l-400 -2000h-258z" />
    <glyph glyph-name="zero" unicode="0" horiz-adv-x="947" 
d="M472 -18q-180 0 -279 95t-103 271q-3 146 -4 299.5t0 307t4 299.5q4 177 103 270.5t279 93.5q179 0 277.5 -93.5t103.5 -270.5q4 -110 5.5 -224.5t1.5 -230t-1.5 -229t-5.5 -222.5q-5 -176 -103.5 -271t-277.5 -95zM472 193q118 0 123 108q6 167 8.5 338.5t0 339
t-8.5 322.5q-3 106 -123 106q-121 0 -124 -106q-3 -125 -5.5 -252.5t-2.5 -255t2.5 -251.5t5.5 -241q3 -108 124 -108z" />
    <glyph glyph-name="one" unicode="1" horiz-adv-x="511" 
d="M166 0v1365h-94l-6 94l154 141h204v-1600h-258z" />
    <glyph glyph-name="two" unicode="2" horiz-adv-x="914" 
d="M91 0q-1 43 -2 76t-1.5 60t-0.5 54.5t0.5 58.5t1.5 73q3 112 34.5 198.5t92.5 153.5t152 119l122 73q63 39 81.5 94t20.5 101q3 59 3 119t-3 120q-3 53 -34 80t-94 27q-58 0 -86.5 -27t-30.5 -80q-3 -72 -3 -144.5t3 -144.5h-255q-2 40 -3 83.5t-1.5 85t0.5 73.5
q9 196 96 280.5t281 84.5q137 0 219.5 -36.5t121.5 -117t44 -211.5q1 -21 1.5 -45t0.5 -49v-50t-2 -48q-3 -98 -33 -174t-86.5 -136t-141.5 -110l-140 -81q-38 -24 -60 -65t-31 -87.5t-9 -85.5v-94h481v-228h-739z" />
    <glyph glyph-name="three" unicode="3" horiz-adv-x="941" 
d="M465 -18q-207 0 -299.5 85t-98.5 282q-1 36 -1.5 62.5t0 55t1.5 69.5h258v-221q0 -60 34.5 -91t98.5 -31q65 0 98.5 31t34.5 91q2 59 2 129.5t-2 124.5q-3 65 -31.5 107t-114.5 40l-172 -2l-8 218l279 440h-459v228h754l-3 -219l-290 -442q153 -13 224 -100.5t79 -268.5
q1 -31 1.5 -60.5t0.5 -56t-0.5 -52.5t-1.5 -52q-9 -197 -97.5 -282t-286.5 -85z" />
    <glyph glyph-name="four" unicode="4" horiz-adv-x="959" 
d="M514 0v424h-454v214l354 962h343v-950h163v-226h-163v-424h-243zM307 650h207l34 384l29 338h-51l-96 -338z" />
    <glyph glyph-name="five" unicode="5" horiz-adv-x="961" 
d="M485 -18q-207 0 -300 85t-98 282q-2 56 -2 98t3 89h259q-3 -32 -4 -73.5t-0.5 -80.5t2.5 -67q6 -60 37 -91t96 -31q64 0 96 31t36 91q8 99 9 192.5t-7 182.5q-3 55 -33.5 82t-88.5 27q-41 0 -71 -13t-47 -37.5t-18 -59.5h-245v911h738v-228h-480v-466h41q24 45 77 76.5
t126 31.5q126 0 188.5 -85t70.5 -234q3 -61 4 -121t-0.5 -117t-5.5 -108q-12 -131 -52 -212t-119.5 -118t-211.5 -37z" />
    <glyph glyph-name="six" unicode="6" horiz-adv-x="931" 
d="M468 -19q-201 0 -289 85t-90 282q-1 139 -2 274.5t-1 257t0.5 218t2.5 155.5q8 187 106 276t271 89q181 0 278 -92t103 -273q1 -20 1 -46.5t-0.5 -53t-1.5 -50.5h-257q2 32 2.5 59t0 59t-2.5 79q-1 50 -29 78.5t-90 28.5q-59 0 -90 -27t-33 -80q-3 -88 -4.5 -191.5
t-1.5 -220.5h47q24 46 78.5 77t128.5 31q148 0 203.5 -74t58.5 -245q1 -61 1.5 -117.5t0 -108.5t-3.5 -103q-9 -197 -97.5 -282t-289.5 -85zM470 192q62 0 94 28t33 81q2 52 2.5 101.5t0.5 96v89.5t-1 84q-1 55 -33 82t-89 27q-61 0 -97.5 -27.5t-38.5 -78.5q2 -88 2.5 -181
t3.5 -193q2 -53 33 -81t90 -28z" />
    <glyph glyph-name="seven" unicode="7" horiz-adv-x="893" 
d="M153 0l423 1372h-530v228h787v-233l-412 -1367h-268z" />
    <glyph glyph-name="eight" unicode="8" horiz-adv-x="933" 
d="M466 -18q-196 0 -285.5 85t-97.5 282q-2 28 -1.5 58t1.5 63t3 70q10 103 48 163t114 93v41q-53 20 -92.5 66t-52.5 118q-5 34 -8 77t-4 84t0 69q8 197 95 282t280 85t279.5 -85t95.5 -282q2 -28 0.5 -69t-4.5 -84t-8 -77q-13 -72 -52 -118t-93 -66v-42q69 -34 110 -93.5
t52 -161.5q5 -56 5.5 -102t-2.5 -89q-8 -197 -97 -282t-286 -85zM466 193q64 0 94.5 31t30.5 91q1 43 1 84.5v83t-1 84.5q0 61 -30.5 92.5t-94.5 31.5t-94.5 -31.5t-30.5 -92.5q-1 -64 -1 -126t1 -126q0 -60 30.5 -91t94.5 -31zM466 937q64 0 94.5 31.5t30.5 92.5
q1 58 1 113t-1 111q0 60 -30.5 91t-94.5 31t-94.5 -31t-30.5 -91q0 -28 -0.5 -56t-0.5 -56t0.5 -55.5t0.5 -56.5q0 -61 30.5 -92.5t94.5 -31.5z" />
    <glyph glyph-name="nine" unicode="9" horiz-adv-x="931" 
d="M471 -19q-199 0 -286 85t-87 281v46t0.5 53t1.5 50h256q-1 -47 -1.5 -93t1.5 -103q3 -50 26 -79t85 -29q59 0 85.5 27.5t29.5 80.5q3 81 5.5 185.5t3.5 222.5h-40q-21 -45 -69.5 -76.5t-122.5 -31.5q-75 0 -140.5 34t-106 107.5t-40.5 192.5q-1 38 -1 77.5v79.5t0.5 80.5
t1.5 79.5q5 197 96.5 282t290.5 85q202 0 289 -85t91 -282q3 -168 4 -318t0 -294t-4 -292q-4 -196 -92 -281t-277 -85zM461 815q58 0 91 24.5t39 70.5q-1 95 -4 192.5t-5 195.5q-1 54 -33 81.5t-90 27.5q-61 0 -94 -27.5t-34 -81.5q0 -45 -0.5 -90.5t-0.5 -92t-0.5 -94
t0.5 -97.5q2 -54 38.5 -81.5t92.5 -27.5z" />
    <glyph glyph-name="colon" unicode=":" horiz-adv-x="477" 
d="M83 600v253h311v-253h-311zM83 0v253h311v-253h-311z" />
    <glyph glyph-name="semicolon" unicode=";" horiz-adv-x="479" 
d="M114 -264l111 264h-142v258h313v-234l-147 -288h-135zM83 601v253h311v-253h-311z" />
    <glyph glyph-name="less" unicode="&#x3c;" horiz-adv-x="1052" 
d="M965 445l-879 134v312l879 137v-211l-416 -47l-272 -8v-53l272 -8l416 -45v-211z" />
    <glyph glyph-name="equal" unicode="=" horiz-adv-x="984" 
d="M86 808v194h811v-194h-811zM86 460v194h811v-194h-811z" />
    <glyph glyph-name="greater" unicode="&#x3e;" horiz-adv-x="1052" 
d="M86 445v211l416 45l272 8v53l-271 8l-417 47v211l879 -137v-312z" />
    <glyph glyph-name="question" unicode="?" horiz-adv-x="882" 
d="M327 411l-5 137q-5 81 6 137.5t46 98.5t99 82l36 21q23 13 34.5 38.5t14.5 60.5t3 76v240q0 53 -31.5 80t-92.5 27q-56 0 -86.5 -27t-33.5 -80q-4 -76 -4.5 -148t2.5 -141h-249q-1 34 -2 73t-1.5 81.5t1.5 87.5q8 196 93.5 280.5t277.5 84.5q205 0 294.5 -84.5
t89.5 -280.5v-79t0.5 -59.5t-0.5 -54.5q0 -104 -17.5 -168t-45 -100t-59 -55t-59.5 -33l-45 -24q-42 -21 -50 -58.5t-12 -76.5l-8 -136h-196zM271 0v253h311v-253h-311z" />
    <glyph glyph-name="at" unicode="@" horiz-adv-x="1331" 
d="M664 -301q-201 0 -326.5 43t-184.5 135.5t-62 243.5q-2 120 -3 232t-1.5 223.5t1 229.5t3.5 252q3 157 62 254t184.5 141.5t326.5 44.5q198 0 323 -44.5t186 -142t66 -255.5q2 -97 3.5 -182.5t1.5 -165t-1.5 -156.5t-3.5 -156q-4 -99 -72 -148.5t-185 -49.5
q-114 0 -169.5 27t-74.5 70h-42q-25 -45 -52.5 -72t-85.5 -27q-76 0 -114.5 51t-48.5 172q-3 59 -4 130t0.5 137.5t3.5 114.5q8 120 49 171.5t117 51.5q53 0 81 -24.5t54 -75.5h27v87h199v-610q0 -35 16 -53.5t44 -18.5q24 0 38.5 19t17.5 54q3 59 5 134.5t2.5 162.5
t-0.5 180.5t-5 188.5q-6 137 -90.5 198t-285.5 61q-197 0 -281.5 -60t-89.5 -199q-3 -122 -4.5 -243t-1.5 -241t1.5 -239t4.5 -236q5 -128 90 -183.5t281 -55.5q194 0 279.5 54.5t85.5 184.5q1 8 0.5 14t-0.5 17h198v-18v-13q0 -148 -57 -238t-181 -131t-325 -41zM643 339
q20 0 45.5 17.5t34.5 41.5v423q-10 27 -37 42.5t-43 15.5q-24 0 -35 -16t-13 -44q-5 -73 -5.5 -138.5t1.5 -133t6 -146.5q2 -35 12.5 -48.5t33.5 -13.5z" />
    <glyph glyph-name="A" unicode="A" 
d="M26 0l209 1600h416l209 -1600h-265l-36 367h-232l-36 -367h-265zM351 595h184l-35 352l-29 425h-56l-29 -425z" />
    <glyph glyph-name="B" unicode="B" horiz-adv-x="882" 
d="M86 0v1600h337q202 0 295 -83t94 -274v-84.5t-2 -75.5q-6 -102 -44.5 -162.5t-120.5 -87.5v-46q85 -27 124 -88t43 -167q2 -47 2 -87t-2 -88q-8 -190 -97 -273.5t-291 -83.5h-338zM345 228h79q63 0 96.5 33.5t33.5 98.5q1 42 1 80.5t-1 79.5q0 97 -31.5 137.5
t-100.5 40.5h-77v-470zM345 926h78q64 0 97 42t34 122v83.5v82.5q-1 57 -34 86.5t-97 29.5h-78v-446z" />
    <glyph glyph-name="C" unicode="C" horiz-adv-x="910" 
d="M460 -19q-204 0 -290.5 85t-90.5 282q-2 98 -3 214t-1 238t1 238.5t3 215.5q3 170 92.5 267t288.5 97q196 0 284 -84.5t93 -280.5q1 -35 1 -78t-1 -86.5t-2 -77.5h-258q1 41 2 92.5t1 103.5t-1 93q-1 53 -31.5 80t-87.5 27q-59 0 -90 -27t-33 -80q-4 -116 -5.5 -243
t-1.5 -257t1.5 -256.5t5.5 -242.5q2 -54 33 -81.5t90 -27.5q62 0 94 27.5t33 81.5q1 41 1.5 94t0 106t-1.5 93h258q2 -57 2 -122.5t-2 -123.5q-5 -197 -94.5 -282t-290.5 -85z" />
    <glyph glyph-name="D" unicode="D" horiz-adv-x="922" 
d="M86 0v1600h369q203 0 294 -87t94 -287q3 -152 4 -288.5t0 -273t-4 -288.5q-3 -201 -94 -288.5t-295 -87.5h-368zM345 228h109q65 0 97.5 30t33.5 87q3 115 4.5 228.5t1.5 227.5t-1.5 228t-4.5 227q-1 57 -33.5 86.5t-96.5 29.5h-110v-1144z" />
    <glyph glyph-name="E" unicode="E" horiz-adv-x="763" 
d="M86 0v1600h632v-228h-373v-446h353v-228h-353v-470h373v-228h-632z" />
    <glyph glyph-name="F" unicode="F" horiz-adv-x="756" 
d="M86 0v1600h632v-228h-373v-446h353v-228h-353v-698h-259z" />
    <glyph glyph-name="G" unicode="G" horiz-adv-x="914" 
d="M463 -18q-136 0 -218.5 37t-120.5 118t-43 212q-3 97 -4.5 212t-1.5 234.5t1.5 233.5t4.5 209q5 138 44.5 222t121.5 121t216 37q190 0 277.5 -84.5t98.5 -280.5q3 -54 3 -120.5t-3 -121.5h-258q3 63 3 145t-3 144q-3 53 -33 80t-85 27q-60 0 -90.5 -27t-33.5 -80
q-5 -115 -7.5 -242t-2.5 -257.5t2.5 -257t7.5 -241.5q3 -54 33.5 -81.5t90.5 -27.5t94 27.5t37 81.5q2 31 2.5 72.5t0 83.5t-2.5 72h-115v225h367q4 -87 3 -194.5t-5 -211.5q-9 -197 -97.5 -282t-283.5 -85z" />
    <glyph glyph-name="H" unicode="H" horiz-adv-x="910" 
d="M86 0v1600h259v-674h221v674h258v-1600h-258v698h-221v-698h-259z" />
    <glyph glyph-name="I" unicode="I" horiz-adv-x="431" 
d="M86 0v1600h259v-1600h-259z" />
    <glyph glyph-name="J" unicode="J" horiz-adv-x="843" 
d="M403 -18q-133 0 -211 37t-113 118t-38 212q-1 57 -1 122.5t1 123.5h243q-1 -41 -1.5 -94t0 -105.5t1.5 -93.5q2 -54 30.5 -81.5t88.5 -27.5q61 0 87.5 27.5t26.5 81.5v1298h258v-1251q0 -197 -83.5 -282t-288.5 -85z" />
    <glyph glyph-name="K" unicode="K" horiz-adv-x="917" 
d="M86 0v1600h275l-3 -386l-45 -370h49l103 379l136 377h282l-259 -672l275 -928h-263l-183 639l-103 -234v-405h-264z" />
    <glyph glyph-name="L" unicode="L" horiz-adv-x="748" 
d="M86 0v1600h259v-1372h375v-228h-634z" />
    <glyph glyph-name="M" unicode="M" horiz-adv-x="1381" 
d="M86 0v1600h423l123 -618l35 -752h49l33 752l125 618h421v-1600h-259v486l50 886h-52l-90 -903l-111 -467h-286l-109 467l-91 903h-50l48 -886v-486h-259z" />
    <glyph glyph-name="N" unicode="N" horiz-adv-x="1016" 
d="M86 0v1600h382l113 -509l116 -863h50l-47 716l-21 656h250v-1600h-400l-115 536l-90 838h-54l44 -764l22 -610h-250z" />
    <glyph glyph-name="O" unicode="O" horiz-adv-x="924" 
d="M462 -18q-200 0 -289 84.5t-93 281.5q-2 109 -3.5 223t-1.5 229.5t1.5 229.5t3.5 224q4 196 93 280t289 84q201 0 288 -84t93 -280q3 -111 5 -225t2 -229.5t-2 -229t-5 -222.5q-6 -197 -93 -281.5t-288 -84.5zM462 193q62 0 92 27t31 81q4 113 6 240.5t2 260t-2 259.5
t-6 240q-1 53 -32 79.5t-91 26.5t-91 -26.5t-33 -79.5q-4 -113 -6.5 -240t-2.5 -259.5t2.5 -260t6.5 -240.5q2 -54 33 -81t91 -27z" />
    <glyph glyph-name="P" unicode="P" horiz-adv-x="873" 
d="M86 0v1600h351q202 0 291.5 -83t96.5 -274q3 -97 3 -177.5t-3 -170.5q-7 -191 -97 -274.5t-292 -83.5h-91v-537h-259zM345 765h91q65 0 96.5 30t34.5 86q3 57 4 122.5t0 131t-4 121.5q-3 57 -34.5 86.5t-95.5 29.5h-92v-607z" />
    <glyph glyph-name="Q" unicode="Q" horiz-adv-x="924" 
d="M819 -233q-155 -12 -241.5 39t-117.5 176q-199 0 -287.5 84.5t-92.5 281.5q-2 109 -3.5 223t-1.5 229.5t1.5 229.5t3.5 224q4 196 93 280t289 84q201 0 288 -84t93 -280q3 -111 5 -225t2 -229.5t-2 -229t-5 -222.5q-4 -121 -38 -198t-105 -118q11 -35 41 -49t78 -9v-207z
M462 193q62 0 92 27t31 81q4 113 6 240.5t2 260t-2 259.5t-6 240q-1 53 -31 79.5t-92 26.5q-60 0 -91 -26.5t-33 -79.5q-4 -113 -6.5 -240t-2.5 -259.5t2.5 -260t6.5 -240.5q2 -54 33 -81t91 -27z" />
    <glyph glyph-name="R" unicode="R" horiz-adv-x="889" 
d="M86 0v1600h351q202 0 291.5 -83t96.5 -274q2 -64 3 -115.5t0 -102t-3 -110.5q-4 -122 -41 -198.5t-116 -115.5l181 -601h-274l-150 558h-80v-558h-259zM345 786h91q65 0 96.5 29.5t34.5 86.5q3 56 4 116.5t0 121t-4 116.5q-3 57 -34.5 86.5t-95.5 29.5h-92v-586z" />
    <glyph glyph-name="S" unicode="S" horiz-adv-x="882" 
d="M442 -18q-199 0 -284 85t-94 282q-1 39 -1 81t2 83.5t6 81.5h243q-4 -77 -4.5 -152.5t4.5 -140.5q5 -54 35.5 -81.5t92.5 -27.5q61 0 89 27.5t33 81.5q4 40 5.5 76t0 73t-5.5 78q-3 50 -24.5 88t-71.5 51l-149 38q-97 25 -153 72.5t-80.5 119.5t-27.5 170q-1 49 -1 94.5
t1 90.5q5 131 43.5 211.5t121 117t219.5 36.5q193 0 279.5 -84.5t94.5 -280.5q2 -46 1 -113t-4 -129h-248q3 72 4 144.5t-2 144.5q-2 53 -34.5 80t-90.5 27q-62 0 -91 -27t-35 -80q-5 -58 -5 -116t5 -116q5 -52 26.5 -88t75.5 -49l131 -31q103 -25 162 -74.5t84.5 -123.5
t28.5 -173q1 -33 1 -62.5t-0.5 -58t-2.5 -59.5q-8 -197 -93.5 -282t-286.5 -85z" />
    <glyph glyph-name="T" unicode="T" horiz-adv-x="769" 
d="M255 0v1372h-243v228h745v-228h-244v-1372h-258z" />
    <glyph glyph-name="U" unicode="U" horiz-adv-x="906" 
d="M454 -18q-203 0 -291 84.5t-91 281.5q-4 311 -4 626.5t4 625.5h259q-4 -207 -4.5 -428.5t0.5 -442.5t3 -428q0 -53 32 -80.5t92 -27.5q61 0 91.5 27.5t30.5 80.5q2 207 3.5 428t1 442.5t-4.5 428.5h258q5 -310 5 -625.5t-5 -626.5q-3 -197 -90 -281.5t-290 -84.5z" />
    <glyph glyph-name="V" unicode="V" horiz-adv-x="913" 
d="M244 0l-216 1600h267l110 -824l24 -548h55l24 548l110 824h267l-216 -1600h-425z" />
    <glyph glyph-name="W" unicode="W" horiz-adv-x="1465" 
d="M183 0l-141 1600h260l47 -699l34 -673h51l8 673l118 689h345l119 -689l7 -673h51l34 673l48 699h260l-142 -1600h-428l-66 466l-30 904h-51l-30 -904l-66 -466h-428z" />
    <glyph glyph-name="X" unicode="X" horiz-adv-x="871" 
d="M29 0l232 828l-226 772h253l96 -375l33 -294h40l33 294l93 375h253l-216 -781l222 -819h-252l-99 394l-34 309h-40l-33 -309l-102 -394h-253z" />
    <glyph glyph-name="Y" unicode="Y" horiz-adv-x="860" 
d="M301 0v390v2l-280 1208h264l84 -404l36 -467h51l35 467l84 404h264l-280 -1209v-2v-389h-258z" />
    <glyph glyph-name="Z" unicode="Z" horiz-adv-x="776" 
d="M34 0v215l431 1157h-407v228h683v-219l-448 -1153h417v-228h-676z" />
    <glyph glyph-name="bracketleft" unicode="[" horiz-adv-x="658" 
d="M86 -400v2000h512v-124h-253v-1752h253v-124h-512z" />
    <glyph glyph-name="backslash" unicode="\" horiz-adv-x="778" 
d="M718 -400h-258l-400 2000h258z" />
    <glyph glyph-name="bracketright" unicode="]" horiz-adv-x="658" 
d="M589 -400h-512v124h253v1752h-253v124h512v-2000z" />
    <glyph glyph-name="asciicircum" unicode="^" horiz-adv-x="823" 
d="M86 879l242 499h168l241 -499h-168l-157 328l-158 -328h-168z" />
    <glyph glyph-name="underscore" unicode="_" horiz-adv-x="1312" 
d="M60 -120v40h1192v-40h-1192z" />
    <glyph glyph-name="grave" unicode="`" horiz-adv-x="513" 
d="M261 1280l-172 265h169l164 -265h-161z" />
    <glyph glyph-name="a" unicode="a" horiz-adv-x="887" 
d="M315 -15q-124 0 -182.5 62.5t-71.5 209.5q-1 20 -1 46t1 46q6 79 34.5 136t88.5 101.5t159 83.5q52 22 101 37.5t102 30.5v180q0 52 -21 79t-81 27q-51 0 -72.5 -22t-24.5 -76q-1 -17 -1.5 -50.5t0 -68.5t1.5 -56h-251q-1 18 -2 64.5t0 81.5q5 112 40 183t111.5 104.5
t205.5 33.5q135 0 211.5 -37t108 -116.5t31.5 -207.5l-1 -857h-258v124h-34q-32 -71 -75 -105t-119 -34zM420 171q42 0 74 24t51 65v307q-36 -9 -70 -21.5t-66 -30.5q-53 -28 -72 -70.5t-22 -95.5v-36.5t1 -34.5q5 -52 31 -79.5t73 -27.5z" />
    <glyph glyph-name="b" unicode="b" horiz-adv-x="927" 
d="M591 -18q-88 0 -132 36.5t-83 105.5h-29v-124h-258v1600h258v-524h46q39 69 83 105.5t132 36.5q117 0 176.5 -72t67.5 -240q2 -59 3 -140t1 -168t-1 -167t-3 -136q-8 -168 -75.5 -240.5t-185.5 -72.5zM499 171q49 0 70.5 24.5t23.5 77.5q4 66 6 148t2 170.5t-2 175
t-6 160.5q-2 53 -23.5 77.5t-70.5 24.5q-44 0 -89 -25t-63 -70v-668q18 -45 63 -70t89 -25z" />
    <glyph glyph-name="c" unicode="c" horiz-adv-x="858" 
d="M543 751q1 22 1.5 57t0 68t-1.5 50q-2 54 -26 76t-78 22q-55 0 -79.5 -22t-26.5 -76q-2 -80 -3 -161t-1 -162t1 -161t3 -160q2 -58 27.5 -82t81.5 -24q52 0 75.5 24t25.5 82q2 28 2 72.5t-2 97.5h251q2 -18 3 -63t-1 -80q-8 -175 -90 -251t-264 -76q-187 0 -272 76
t-95 251q-2 46 -3 122.5t-1 163.5t1 165.5t3 126.5q12 179 96 255t268 76t267 -74.5t90 -246.5q2 -34 1 -80t-3 -66h-251z" />
    <glyph glyph-name="d" unicode="d" horiz-adv-x="927" 
d="M324 -18q-117 0 -179 72.5t-70 240.5q-2 56 -3 136t-1 167t1 168t3 140q8 168 72 240t180 72q89 0 132.5 -36.5t82.5 -105.5h38v524h258v-1600h-258v124h-38q-39 -68 -84.5 -105t-133.5 -37zM428 171q45 0 89 25t63 70v668q-19 45 -63 70t-89 25q-48 0 -70 -24.5
t-25 -77.5q-4 -99 -5.5 -217.5t0 -233.5t5.5 -203q3 -53 25 -77.5t70 -24.5z" />
    <glyph glyph-name="e" unicode="e" horiz-adv-x="860" 
d="M443 -18q-187 0 -272.5 76t-95.5 251q-2 46 -3 122.5t-1 163.5t1 165.5t3 126.5q12 179 96.5 255t268.5 76q183 0 265.5 -74.5t90.5 -246.5q1 -24 1.5 -80.5t0 -126.5t-3.5 -134h-464q0 -69 1.5 -137.5t2.5 -136.5q2 -58 27 -82t82 -24q52 0 74.5 24t25.5 82q2 28 2 72.5
t-2 98.5h251q2 -19 3 -64t-1 -80q-8 -175 -89.5 -251t-263.5 -76zM330 736h215v82.5t-0.5 68t-1.5 39.5q-3 52 -26.5 75t-76.5 23q-56 0 -80 -23t-26 -75q-1 -49 -2 -96z" />
    <glyph glyph-name="f" unicode="f" horiz-adv-x="622" 
d="M134 0v1004h-125v196h125v93q0 175 90 251t278 76q33 0 69.5 -4t69.5 -9v-189q-33 1 -68 1h-70q-55 0 -83 -26t-28 -80v-113h204v-196h-204v-1004h-258z" />
    <glyph glyph-name="g" unicode="g" horiz-adv-x="934" 
d="M429 -384q-168 0 -253.5 46t-102.5 134q-3 12 -4.5 30.5t0.5 36.5q6 48 39.5 84.5t91.5 43.5v38q-52 9 -83 38t-38 75q-1 13 -1 27t1 30q5 43 43.5 70t97.5 35v38q-79 36 -117 107t-46 187q-1 40 -2 71.5t-1 59.5t1 57t2 63q7 115 44 188t116.5 108t212.5 35
q125 0 198.5 -31.5t114.5 -100.5h38q7 60 43 87t108 27v-196h-32q-48 0 -75 -24t-27 -85v-71v-46.5t0.5 -42.5t0 -45t-2.5 -54q-8 -120 -45.5 -193.5t-115.5 -106t-207 -32.5q-91 0 -125 -14t-34 -47v-7q0 -21 9 -33.5t41 -18.5t104 -7q196 -3 287 -62t108 -175
q4 -19 4 -39.5t-4 -46.5q-8 -82 -53.5 -134.5t-129 -78t-206.5 -25.5zM435 -206q53 0 89.5 9t57.5 26.5t28 43.5q5 16 4 29.5t-5 27.5q-8 27 -29.5 43t-57.5 23.5t-87 8.5q-78 1 -115.5 -17t-47.5 -58q-4 -14 -3.5 -29t3.5 -28q6 -27 25 -44.5t53 -26t85 -8.5zM427 498
q66 0 89 27t26 75q2 29 3.5 71t1.5 88t-1.5 88.5t-3.5 73.5q-3 53 -27.5 78t-87.5 25t-89 -25.5t-28 -80.5q-2 -50 -3 -93.5t-1 -82.5t1 -73t3 -63q4 -47 25.5 -77.5t91.5 -30.5z" />
    <glyph glyph-name="h" unicode="h" horiz-adv-x="939" 
d="M89 0v1600h258v-524h46q39 69 83 105.5t132 36.5q117 0 182 -72t65 -240v-906h-258v927q0 53 -24.5 77.5t-73.5 24.5q-44 0 -89 -25t-63 -70v-934h-258z" />
    <glyph glyph-name="i" unicode="i" horiz-adv-x="436" 
d="M80 1391v209h277v-209h-277zM90 0v1200h258v-1200h-258z" />
    <glyph glyph-name="j" unicode="j" horiz-adv-x="438" 
d="M81 1391v209h277v-209h-277zM-21 -422q-32 0 -69.5 4t-70.5 9v193q26 -2 68 -3.5t71 -1.5q55 0 84 26.5t29 80.5v1314h258v-1294q0 -175 -91 -251.5t-279 -76.5z" />
    <glyph glyph-name="k" unicode="k" horiz-adv-x="845" 
d="M89 0v1600h241v-336l-30 -541h41l87 246l107 231h268l-235 -460l276 -740h-264l-174 480l-71 -118v-362h-246z" />
    <glyph glyph-name="l" unicode="l" horiz-adv-x="436" 
d="M89 0v1600h258v-1600h-258z" />
    <glyph glyph-name="m" unicode="m" horiz-adv-x="1436" 
d="M89 0v1200h258v-124h46q38 69 82.5 105.5t132.5 36.5q85 0 141.5 -37t82.5 -122h42q39 69 91.5 114t140.5 45q117 0 181 -72t64 -240v-906h-258v927q0 53 -24 77.5t-72 24.5q-42 0 -83 -28.5t-61 -71.5v-929h-258v927q0 53 -23.5 77.5t-72.5 24.5q-44 0 -89 -25t-63 -70
v-934h-258z" />
    <glyph glyph-name="n" unicode="n" horiz-adv-x="939" 
d="M89 0v1200h258v-124h46q39 68 83.5 105t131.5 37q117 0 182 -72t65 -240v-906h-258v927q0 53 -24.5 77.5t-73.5 24.5q-43 0 -88.5 -25.5t-63.5 -69.5v-934h-258z" />
    <glyph glyph-name="o" unicode="o" horiz-adv-x="897" 
d="M450 -18q-134 0 -213.5 36.5t-116.5 117t-44 212.5q-2 46 -3.5 111.5t-1.5 138t1 140t4 116.5q7 130 43.5 210.5t116 117t214.5 36.5t213.5 -37t115 -117.5t43.5 -209.5q2 -46 3 -112t1 -138.5t-1 -139.5t-3 -116q-7 -130 -43.5 -211t-115 -118t-213.5 -37zM450 176
q61 0 86.5 27t27.5 81q2 79 3.5 158t1.5 159t-1.5 159t-3.5 157q-2 54 -27.5 80.5t-86.5 26.5q-60 0 -87 -26.5t-29 -80.5q-2 -78 -3.5 -157.5t-1.5 -159t1.5 -159t3.5 -157.5q2 -54 29 -81t87 -27z" />
    <glyph glyph-name="p" unicode="p" horiz-adv-x="927" 
d="M89 -400v1600h258v-124h38q39 69 83 105.5t132 36.5q117 0 180.5 -72t71.5 -240q2 -53 3 -133t1 -169.5t-1 -171.5t-3 -137q-8 -168 -78 -240.5t-188 -72.5q-64 0 -111 32.5t-90 109.5h-38v-524h-258zM482 171q49 0 79 24.5t32 77.5q4 71 6 155t2 172t-2 172t-6 155
q-2 53 -23.5 77.5t-70.5 24.5q-44 0 -89 -25t-63 -70v-668q21 -51 52.5 -73t82.5 -22z" />
    <glyph glyph-name="q" unicode="q" horiz-adv-x="927" 
d="M580 -400v524h-35q-42 -77 -88.5 -109.5t-112.5 -32.5q-116 0 -188.5 72.5t-80.5 240.5q-2 52 -3 132t-1 169t1 171.5t3 138.5q8 168 72 240t180 72q89 0 132.5 -36.5t82.5 -105.5h38v124h258v-1600h-258zM445 171q51 0 82.5 22t52.5 73v668q-19 45 -63 70t-89 25
q-48 0 -70 -24.5t-25 -77.5q-4 -101 -5.5 -219t0 -232.5t5.5 -202.5q3 -53 33.5 -77.5t78.5 -24.5z" />
    <glyph glyph-name="r" unicode="r" horiz-adv-x="650" 
d="M89 0v1200h258v-141h46q11 83 52.5 115.5t106.5 32.5q24 0 46.5 -2t34.5 -3v-198h-77q-108 0 -152.5 -34t-56.5 -96v-874h-258z" />
    <glyph glyph-name="s" unicode="s" horiz-adv-x="817" 
d="M402 -18q-177 0 -253.5 76t-83.5 251q-1 35 -0.5 80t2.5 63h226q-2 -53 -2 -97.5t1 -72.5q3 -58 30.5 -82t79.5 -24q63 0 91 24t29 82v35.5v16.5v32q0 42 -15 67.5t-54 37.5l-130 37q-85 26 -144 63.5t-89.5 96.5t-31.5 147v36v35q1 178 80.5 255t275.5 77
q179 0 253.5 -74.5t81.5 -246.5q2 -34 1 -80t-3 -66h-234q1 22 1.5 57t0 68t-1.5 50q-3 54 -24 76t-75 22q-57 0 -79.5 -22t-24.5 -76q-1 -25 -1.5 -39t-0.5 -50q0 -46 14 -77.5t63 -44.5l115 -29q129 -32 194.5 -101.5t65.5 -204.5v-38.5v-38.5q-1 -172 -83 -246.5
t-275 -74.5z" />
    <glyph glyph-name="t" unicode="t" horiz-adv-x="644" 
d="M523 -18q-206 0 -294.5 76t-88.5 251v695h-106v196h108v340h260v-340h196v-196h-200v-723q0 -59 24 -83t102 -24q24 0 45.5 1t48.5 2v-185q-21 -6 -44.5 -8t-50.5 -2z" />
    <glyph glyph-name="u" unicode="u" horiz-adv-x="932" 
d="M334 -18q-116 0 -184.5 72.5t-68.5 240.5v905h258v-927q0 -53 23.5 -77.5t71.5 -24.5q43 0 88 25.5t63 69.5v934h259v-1200h-259v124h-36q-41 -76 -92 -109t-123 -33z" />
    <glyph glyph-name="v" unicode="v" horiz-adv-x="821" 
d="M197 0l-173 1200h262l69 -603l22 -406h64l22 406l72 603h262l-176 -1200h-424z" />
    <glyph glyph-name="w" unicode="w" horiz-adv-x="1412" 
d="M179 0l-150 1200h260l51 -603l19 -406h69l14 406l54 601h419l52 -601l13 -406h69l20 406l53 603h262l-155 -1200h-437l-36 466l-16 542h-70l-18 -542l-36 -466h-437z" />
    <glyph glyph-name="x" unicode="x" horiz-adv-x="775" 
d="M16 0l193 631l-189 569h249l71 -251l22 -214h52l23 214l69 251h249l-188 -574l192 -626h-249l-75 303l-21 244h-51l-21 -244l-77 -303h-249z" />
    <glyph glyph-name="y" unicode="y" horiz-adv-x="832" 
d="M210 -418q-32 0 -71.5 3.5t-73.5 9.5v192q26 -1 71 -3t74 -2q78 0 108.5 24.5t37.5 82.5l15 111h-138l-205 1200h262l63 -553l49 -456h64l26 456l51 553h262l-191 -1291q-17 -116 -59.5 -188t-124.5 -105.5t-220 -33.5z" />
    <glyph glyph-name="z" unicode="z" horiz-adv-x="741" 
d="M39 0v164l390 845l-382 -1v191l657 1v-169l-396 -840h391v-191h-660z" />
    <glyph glyph-name="braceleft" unicode="{" horiz-adv-x="728" 
d="M668 -403q-118 0 -216.5 34t-157 112.5t-58.5 210.5q0 23 1 66t2.5 95t3.5 102.5t3 90t1 57.5q0 81 -26.5 100.5t-77.5 19.5h-83v223h83q51 0 77.5 20t26.5 101q0 17 -1 57t-2.5 91t-2.5 103.5t-2.5 96t-1.5 66.5q0 132 58.5 210.5t156.5 112.5t216 34v-127
q-45 0 -86 -32t-66.5 -84t-25.5 -114q0 -19 1 -50.5t2.5 -70.5t2.5 -79t2 -75.5t1 -60.5q0 -113 -44.5 -192t-136.5 -98v-38q92 -17 136.5 -96.5t44.5 -193.5q0 -24 -1 -60t-2 -75.5t-2.5 -78.5t-2.5 -70.5t-1 -50.5q0 -62 25.5 -114t66.5 -84t86 -32v-127z" />
    <glyph glyph-name="bar" unicode="|" horiz-adv-x="431" 
d="M86 1820h259v-2060h-259v2060z" />
    <glyph glyph-name="braceright" unicode="}" horiz-adv-x="722" 
d="M54 -403v127q45 0 86 32t66.5 84t25.5 114q0 19 -1 50.5t-2.5 70.5t-2.5 78.5t-2 75.5t-1 60q0 114 44.5 193.5t136.5 96.5v38q-92 19 -136.5 98t-44.5 192q0 25 1 60.5t2 75.5t2.5 79t2.5 70.5t1 50.5q0 62 -25.5 114t-66.5 84t-86 32v127q118 0 216 -34t156.5 -112.5
t58.5 -210.5q0 -23 -1.5 -66.5t-2.5 -96t-2.5 -103.5t-2.5 -91t-1 -57q0 -81 27 -101t77 -20h83v-223h-83q-50 0 -77 -19.5t-27 -100.5q0 -18 1 -57.5t3 -90t3.5 -102.5t2.5 -95t1 -66q0 -132 -58.5 -210.5t-157 -112.5t-216.5 -34z" />
    <glyph glyph-name="asciitilde" unicode="~" horiz-adv-x="1031" 
d="M678 581q-60 1 -105 21t-81.5 46t-71.5 47t-75 22q-51 2 -81.5 -29.5t-36.5 -88.5h-141q11 164 83.5 235t183.5 68q66 -1 111.5 -20.5t79 -45.5t66.5 -45.5t74 -20.5q54 -2 85.5 25t34.5 75h141q-9 -154 -80.5 -222.5t-186.5 -66.5z" />
    <glyph glyph-name="uni00A0" unicode="&#xa0;" horiz-adv-x="434" 
 />
    <glyph glyph-name="exclamdown" unicode="&#xa1;" horiz-adv-x="477" 
d="M144 791h189l36 -809v-382h-260v382zM83 1200h311v-253h-311v253z" />
    <glyph glyph-name="cent" unicode="&#xa2;" horiz-adv-x="858" 
d="M322 0v192q-123 21 -181 97.5t-66 219.5q-2 46 -3 122.5t-1 163.5t1 165.5t3 126.5q8 147 66.5 223.5t180.5 97.5v192h224v-190q127 -18 185.5 -93t64.5 -220q2 -34 1 -80t-3 -66h-251q1 22 1.5 57t0 68t-1.5 50q-2 54 -26 76t-78 22q-55 0 -79.5 -22t-26.5 -76
q-2 -80 -3 -161t-1 -162t1 -161t3 -160q2 -58 27.5 -82t81.5 -24q52 0 75.5 24t25.5 82q2 28 2 72.5t-2 97.5h251q2 -18 3 -63t-1 -80q-6 -147 -65 -224t-185 -97v-188h-224z" />
    <glyph glyph-name="sterling" unicode="&#xa3;" horiz-adv-x="983" 
d="M135 0v222q29 16 49 67t31 132t11 186q0 44 -3 81.5t-9 71.5h-126v127h95q-14 54 -28 108.5t-23 117t-9 141.5q2 170 92 267t288 97q196 0 284 -84.5t94 -280.5q1 -35 1 -78t-1 -86.5t-2 -77.5h-258q1 31 1.5 68t1 76t0.5 76.5t-1 68.5q-1 53 -31.5 80t-88.5 27
q-59 0 -90 -27t-32 -80q0 -69 11.5 -135t28.5 -133.5t31 -144.5h176v-127h-160q3 -27 5 -56t2 -61q0 -125 -27.5 -221t-74.5 -153v-41h524v-228h-762z" />
    <glyph glyph-name="currency" unicode="&#xa4;" horiz-adv-x="1176" 
d="M199 50l-106 91l153 176q-20 40 -30.5 93.5t-14.5 120.5q-1 46 -2.5 111.5t-1.5 138t1 140t3 116.5q4 67 15 121.5t33 96.5l-161 179l101 91l154 -171q82 48 232 48q166 0 248 -58l165 178l101 -95l-181 -191q18 -39 27.5 -88.5t11.5 -110.5q2 -46 3.5 -112t1.5 -138.5
t-1.5 -139.5t-3.5 -116q-2 -62 -12 -112t-28 -91l164 -186l-104 -92l-148 168q-82 -53 -244 -53q-152 0 -234 48zM575 359q61 0 87 27t27 81l4 158t2 159t-2 159l-4 158q-1 53 -27 79.5t-87 26.5q-60 0 -87 -26.5t-29 -79.5q-2 -79 -3 -158.5t-1 -159t1 -159t3 -157.5
q2 -54 29.5 -81t86.5 -27z" />
    <glyph glyph-name="yen" unicode="&#xa5;" horiz-adv-x="860" 
d="M301 0v117h-193v94h193v58h-193v93h193v27v2l-280 1209h264l84 -404l36 -467h51l35 467l84 404h264l-280 -1209v-2v-27h195v-93h-195v-58h195v-94h-195v-117h-258z" />
    <glyph glyph-name="brokenbar" unicode="&#xa6;" horiz-adv-x="431" 
d="M86 1820h259v-804h-259v804zM86 536h259v-776h-259v776z" />
    <glyph glyph-name="section" unicode="&#xa7;" horiz-adv-x="880" 
d="M432 -418q-118 0 -190.5 26t-106.5 92t-40 182q-1 24 -1 59t1 67t2 44h226q-1 -36 -1.5 -68t0 -57.5t1.5 -44.5q3 -58 30 -82t79 -24q64 0 92 24t29 82v72v70q-1 41 -12.5 67t-57.5 37l-125 35q-125 34 -195 99.5t-74 190.5q-2 60 -2 107t2 113q3 94 41.5 152.5
t96.5 82.5v37q-56 20 -94.5 62t-44.5 128q-2 41 -1.5 91.5t2.5 82.5q11 119 44 182t107 87t205 24q178 0 253 -75t82 -247q2 -34 1.5 -75.5t-3.5 -86.5h-235q2 30 2.5 68.5t0 72t-1.5 50.5q-3 54 -24.5 68t-74.5 14q-57 0 -78 -14t-27 -68q-2 -25 -2.5 -81.5t0.5 -92.5
q3 -47 15.5 -76t61.5 -42l116 -27q125 -30 189 -113t71 -213q4 -69 3.5 -111t-3.5 -100q-6 -78 -43 -129t-89 -75v-31q58 -23 94.5 -75t39.5 -127q2 -33 1 -69.5t-3 -64.5q-8 -113 -43 -178.5t-111 -93.5t-205 -28zM447 353q61 0 84 29.5t29 78.5q3 30 4 68t0 76t-4 68
q-6 48 -28.5 77t-84.5 29q-59 0 -84.5 -29t-30.5 -77q-4 -44 -4 -106t4 -106q7 -49 31.5 -78.5t83.5 -29.5z" />
    <glyph glyph-name="dieresis" unicode="&#xa8;" horiz-adv-x="661" 
d="M397 1310v176h176v-176h-176zM122 1310v176h175v-176h-175z" />
    <glyph glyph-name="copyright" unicode="&#xa9;" horiz-adv-x="1301" 
d="M652 -10q-184 0 -310.5 69.5t-191 205.5t-64.5 335q0 200 64.5 335.5t191 205t310.5 69.5q275 0 419 -155.5t144 -454.5q0 -199 -64 -335t-189.5 -205.5t-309.5 -69.5zM652 114q207 0 314.5 123.5t107.5 362.5t-107.5 362.5t-314.5 123.5q-208 0 -316.5 -123t-108.5 -363
q0 -239 108.5 -362.5t316.5 -123.5zM654 222q-119 0 -172.5 49.5t-62.5 163.5q-1 27 -1.5 69t-0.5 89.5t0.5 91.5t1.5 73q7 116 61 165.5t172 49.5q121 0 172 -48.5t58 -160.5q2 -19 1 -36.5t-3 -28.5h-156q2 18 1.5 43t-0.5 39q0 39 -17 54.5t-56 15.5q-37 0 -53.5 -15.5
t-18.5 -54.5q-3 -65 -2.5 -124t1.5 -117t1 -123q1 -41 19 -57t55 -16t52.5 16t18.5 57q1 18 1 35t-2 49h156q2 -12 3 -28.5t-1 -37.5q-8 -114 -58.5 -163.5t-169.5 -49.5z" />
    <glyph glyph-name="ordfeminine" unicode="&#xaa;" horiz-adv-x="762" 
d="M289 754q-98 0 -141.5 44.5t-59.5 153.5q-1 14 -1 31t1 32q9 87 57.5 136.5t167.5 89.5q41 14 79 23.5t84 20.5q-1 28 -1.5 56.5t-2.5 55.5q-1 33 -15.5 52t-65.5 19q-41 0 -57.5 -14.5t-21.5 -51.5q-1 -8 -1 -34t0.5 -52t0.5 -31h-195q-1 6 -2 24t-1 39t1 34
q7 123 67 179.5t214 56.5q107 0 166.5 -27t83.5 -86.5t27 -154.5q1 -36 1.5 -89.5t0.5 -117t-0.5 -130t-1 -130.5t-0.5 -117h-202q0 22 0.5 44.5t1.5 44.5h-29q-25 -49 -58 -75t-97 -26zM371 899q34 0 61.5 16t43.5 45v96v97q-29 -5 -59.5 -13.5t-54.5 -18.5
q-43 -16 -57 -43.5t-18 -62.5q-1 -10 -0.5 -24.5t0.5 -21.5q1 -36 25.5 -53t58.5 -17z" />
    <glyph glyph-name="guillemotleft" unicode="&#xab;" horiz-adv-x="706" 
d="M322 840l-302 -332v239l302 332v-239zM322 176l-302 332v239l302 -332v-239zM616 840l-302 -332v239l302 332v-239zM616 176l-302 332v239l302 -332v-239z" />
    <glyph glyph-name="logicalnot" unicode="&#xac;" horiz-adv-x="984" 
d="M703 442v366h-617v194h811v-560h-194z" />
    <glyph glyph-name="uni00AD" unicode="&#xad;" horiz-adv-x="827" 
d="M60 609v228h707v-228h-707z" />
    <glyph glyph-name="registered" unicode="&#xae;" horiz-adv-x="905" 
d="M454 981q-178 0 -273 101t-95 291q0 193 95 293t273 100q177 0 270.5 -100t93.5 -293q0 -190 -93.5 -291t-270.5 -101zM454 1061q145 0 215 77t70 235q0 161 -70 237.5t-215 76.5t-216.5 -76.5t-71.5 -237.5q0 -158 71.5 -235t216.5 -77zM344 1176v424h116q65 0 94 -25
t32 -86v-14.5v-17.5q-1 -33 -16.5 -52.5t-48.5 -27.5v-13q32 -7 47 -26t16 -54q1 -16 2 -33t1 -35t-1 -40h-89q0 29 -0.5 61t-2.5 59q-1 40 -34 40h-27v-160h-89zM433 1414h29q17 0 25.5 8.5t9.5 26.5v21.5v23.5q-1 28 -37 28h-27v-108z" />
    <glyph glyph-name="macron" unicode="&#xaf;" horiz-adv-x="880" 
d="M119 1384h614v-120h-614v120z" />
    <glyph glyph-name="degree" unicode="&#xb0;" horiz-adv-x="611" 
d="M306 1182q-60 0 -110 30t-80 79.5t-30 108.5q0 60 30 110t80 80t110 30q59 0 108.5 -30t79.5 -80t30 -110q0 -59 -30 -108.5t-79.5 -79.5t-108.5 -30zM306 1288q47 0 80 32.5t33 79.5q0 49 -33 82t-80 33t-80.5 -33t-33.5 -82q0 -47 33.5 -79.5t80.5 -32.5z" />
    <glyph glyph-name="plusminus" unicode="&#xb1;" horiz-adv-x="1024" 
d="M415 475v157h-329v195h329v208h194v-208h328v-195h-328v-157h-194zM86 230v157h851v-157h-851z" />
    <glyph glyph-name="uni00B2" unicode="&#xb2;" horiz-adv-x="584" 
d="M61 878q-1 50 -1 80t1 78q2 69 46 120.5t120 87.5l73 35q27 14 34.5 30t10.5 41q2 19 2 35t-2 34q-1 17 -13 29t-38 12q-44 0 -47 -39q-2 -31 -1 -61t2 -46h-184q-1 17 -2 39.5t0 43.5q5 104 65 158t166 54q116 0 177 -54.5t61 -157.5q1 -8 1 -15v-14.5v-17.5
q0 -75 -40.5 -123t-115.5 -82l-91 -40q-10 -6 -21 -18.5t-11 -28.5v-17h259v-163h-451z" />
    <glyph glyph-name="uni00B3" unicode="&#xb3;" horiz-adv-x="600" 
d="M303 869q-119 0 -184 51t-65 148v12.5t0.5 14t1.5 17.5h185q-1 -11 -1.5 -22t-0.5 -21q0 -22 14.5 -36.5t44.5 -14.5q29 0 43.5 12.5t14.5 33.5v30v30q0 26 -15 39.5t-44 13.5h-113l-5 135l121 125h-228v163h455l-1 -159l-141 -123q75 -13 116.5 -60.5t41.5 -130.5v-21
v-21.5v-18.5q0 -94 -61.5 -145.5t-178.5 -51.5z" />
    <glyph glyph-name="acute" unicode="&#xb4;" horiz-adv-x="504" 
d="M78 1280l180 265h169l-189 -265h-160z" />
    <glyph glyph-name="uni00B5" unicode="&#xb5;" horiz-adv-x="967" 
d="M90 -400l-4 1600h259l1 -927q1 -53 25 -77.5t71 -24.5q44 0 88.5 25.5t62.5 69.5v934h258v-966q0 -75 7.5 -136.5t22.5 -97.5h-258q-9 22 -15 53.5t-11 70.5h-40q-26 -46 -54.5 -76.5t-64.5 -45.5q-45 -18 -90 -14v-388h-258z" />
    <glyph glyph-name="paragraph" unicode="&#xb6;" horiz-adv-x="1076" 
d="M527 -200v902h-65q-133 0 -212 36.5t-116.5 117t-45.5 212.5q-1 23 -1.5 53t0 61t1.5 55q7 130 44 210t116.5 116.5t213.5 36.5h528v-141h-82v-1659h-158v1659h-66v-1659h-157z" />
    <glyph glyph-name="periodcentered" unicode="&#xb7;" horiz-adv-x="359" 
d="M83 740v192h193v-192h-193z" />
    <glyph glyph-name="cedilla" unicode="&#xb8;" horiz-adv-x="446" 
d="M75 -316v123h62q59 0 83.5 24t16.5 78l-14 91h134l14 -91q16 -119 -40.5 -172t-193.5 -53h-62z" />
    <glyph glyph-name="uni00B9" unicode="&#xb9;" horiz-adv-x="405" 
d="M136 883v566h-93l-2 63l136 91h146v-720h-187z" />
    <glyph glyph-name="ordmasculine" unicode="&#xba;" horiz-adv-x="769" 
d="M384 752q-154 0 -220 62t-73 212q-1 17 -2 47.5t-1.5 68t-0.5 76t1 72.5t3 57q8 99 37.5 159t90.5 86t162 26q164 0 227.5 -64.5t71.5 -206.5q1 -23 2 -57t1 -72.5v-76t-1 -68t-2 -47.5q-8 -95 -35 -155.5t-89 -89.5t-172 -29zM386 902q50 0 70 19t21 54q3 62 4.5 115
t1.5 102.5t-1.5 99.5t-4.5 105q-1 35 -21 53t-70 18q-49 0 -70 -18t-23 -53q-3 -74 -4.5 -139t-0.5 -132.5t5 -150.5q2 -36 23.5 -54.5t69.5 -18.5z" />
    <glyph glyph-name="guillemotright" unicode="&#xbb;" horiz-adv-x="706" 
d="M384 840v239l302 -332v-239zM384 176v239l302 332v-239zM90 840v239l302 -332v-239zM90 176v239l302 332v-239z" />
    <glyph glyph-name="onequarter" unicode="&#xbc;" horiz-adv-x="1013" 
d="M136 882v566h-93l-2 63l136 91h146v-720h-187zM-168 0l974 1600h197l-975 -1600h-196zM887 720v-404h85v-161h-85v-155h-175v155h-263v156l203 409h235zM712 316l26 146l20 95h-30l-40 -95l-57 -146h81z" />
    <glyph glyph-name="onehalf" unicode="&#xbd;" horiz-adv-x="1033" 
d="M136 882v566h-93l-2 63l136 91h146v-720h-187zM-168 0l974 1600h197l-975 -1600h-196zM510 0q-1 50 -1 80t1 78q2 69 46 120.5t120 87.5l73 35q27 14 34.5 30t10.5 41q2 19 2 35t-2 34q-1 17 -13 29t-38 12q-44 0 -47 -39q-2 -31 -1 -61t2 -46h-184q-1 17 -2 39.5t0 43.5
q5 104 65 158t166 54q116 0 177 -54.5t61 -157.5q1 -8 1 -15v-14.5v-17.5q0 -75 -40.5 -123t-115.5 -82l-91 -40q-10 -6 -21 -18.5t-11 -28.5v-17h259v-163h-451z" />
    <glyph glyph-name="threequarters" unicode="&#xbe;" horiz-adv-x="1275" 
d="M303 869q-119 0 -184 51t-65 148v12.5t0.5 14t1.5 17.5h185q-1 -11 -1.5 -22t-0.5 -21q0 -22 14.5 -36.5t44.5 -14.5q29 0 43.5 12.5t14.5 33.5v30v30q0 26 -15 39.5t-44 13.5h-113l-5 135l121 125h-228v163h455l-1 -159l-141 -123q75 -13 116.5 -60.5t41.5 -130.5v-21
v-21.5v-18.5q0 -94 -61.5 -145.5t-178.5 -51.5zM94 0l974 1600h197l-975 -1600h-196zM1149 720v-404h85v-161h-85v-155h-175v155h-263v156l203 409h235zM974 316l26 146l20 95h-30l-40 -95l-57 -146h81z" />
    <glyph glyph-name="questiondown" unicode="&#xbf;" horiz-adv-x="882" 
d="M447 -420q-206 0 -295 85t-89 280q0 46 -0.5 79t-0.5 59.5v54.5q1 104 18.5 168t45 100t59 55.5t59.5 32.5l45 24q41 22 50 59t12 76l8 136h195l6 -137q5 -81 -6.5 -137.5t-46 -98.5t-99.5 -82l-35 -21q-23 -13 -34 -38.5t-14.5 -60.5t-3.5 -76v-240q0 -52 31.5 -79.5
t92.5 -27.5q57 0 87 27.5t33 79.5q4 77 4 148.5t-3 140.5h250q1 -34 2.5 -73t1.5 -81.5t-2 -87.5q-8 -195 -94 -280t-277 -85zM300 947v253h311v-253h-311z" />
    <glyph glyph-name="Agrave" unicode="&#xc0;" 
d="M26 0l209 1600h416l209 -1600h-265l-36 367h-232l-36 -367h-265zM351 595h184l-35 352l-29 425h-56l-29 -425zM337 1680l-172 265h169l164 -265h-161z" />
    <glyph glyph-name="Aacute" unicode="&#xc1;" 
d="M26 0l209 1600h416l209 -1600h-265l-36 367h-232l-36 -367h-265zM351 595h184l-35 352l-29 425h-56l-29 -425zM371 1680l180 265h169l-189 -265h-160z" />
    <glyph glyph-name="Acircumflex" unicode="&#xc2;" 
d="M26 0l209 1600h416l209 -1600h-265l-36 367h-232l-36 -367h-265zM351 595h184l-35 352l-29 425h-56l-29 -425zM210 1682l156 265h151l155 -265h-168l-62 119l-63 -119h-169z" />
    <glyph glyph-name="Atilde" unicode="&#xc3;" 
d="M26 0l209 1600h416l209 -1600h-265l-36 367h-232l-36 -367h-265zM351 595h184l-35 352l-29 425h-56l-29 -425zM583 1879h100q-5 -103 -40.5 -151.5t-102.5 -48.5q-41 0 -65 13.5t-40.5 31t-34 31t-44.5 13.5q-30 0 -39.5 -20.5t-12.5 -57.5h-100q7 112 45 161t105 49
q41 0 66.5 -13t42.5 -30.5t34 -31t42 -13.5t33.5 17t10.5 50z" />
    <glyph glyph-name="Adieresis" unicode="&#xc4;" 
d="M26 0l209 1600h416l209 -1600h-265l-36 367h-232l-36 -367h-265zM351 595h184l-35 352l-29 425h-56l-29 -425zM493 1710v176h176v-176h-176zM218 1710v176h175v-176h-175z" />
    <glyph glyph-name="Aring" unicode="&#xc5;" 
d="M26 0l209 1600h416l209 -1600h-265l-36 367h-232l-36 -367h-265zM351 595h184l-35 352l-29 425h-56l-29 -425zM444 1671q-80 0 -137.5 57t-57.5 137q0 81 57.5 138t137.5 57t137 -57t57 -138q0 -80 -57 -137t-137 -57zM444 1806q25 0 42 17.5t17 41.5q0 26 -17 42.5
t-42 16.5t-42 -16.5t-17 -42.5q0 -24 17 -41.5t42 -17.5z" />
    <glyph glyph-name="AE" unicode="&#xc6;" horiz-adv-x="1263" 
d="M26 0l314 1600h879v-228h-374v-446h354v-228h-354v-470h374v-228h-632v367h-207l-72 -367h-282zM428 595h159v777h-50l-51 -492z" />
    <glyph glyph-name="Ccedilla" unicode="&#xc7;" horiz-adv-x="910" 
d="M460 -19q-204 0 -290.5 85t-90.5 282q-2 98 -3 214t-1 238t1 238.5t3 215.5q3 170 92.5 267t288.5 97q196 0 284 -84.5t93 -280.5q1 -35 1 -78t-1 -86.5t-2 -77.5h-258q1 41 2 92.5t1 103.5t-1 93q-1 53 -31.5 80t-87.5 27q-59 0 -90 -27t-33 -80q-4 -116 -5.5 -243
t-1.5 -257t1.5 -256.5t5.5 -242.5q2 -54 33 -81.5t90 -27.5q62 0 94 27.5t33 81.5q1 41 1.5 94t0 106t-1.5 93h258q2 -57 2 -122.5t-2 -123.5q-5 -197 -94.5 -282t-290.5 -85zM238 -299v123h62q59 0 83.5 24t16.5 78l-14 91h134l14 -91q16 -119 -40.5 -172t-193.5 -53h-62z
" />
    <glyph glyph-name="Egrave" unicode="&#xc8;" horiz-adv-x="763" 
d="M86 0v1600h632v-228h-373v-446h353v-228h-353v-470h373v-228h-632zM279 1680l-172 265h169l164 -265h-161z" />
    <glyph glyph-name="Eacute" unicode="&#xc9;" horiz-adv-x="763" 
d="M86 0v1600h632v-228h-373v-446h353v-228h-353v-470h373v-228h-632zM313 1680l180 265h169l-189 -265h-160z" />
    <glyph glyph-name="Ecircumflex" unicode="&#xca;" horiz-adv-x="763" 
d="M86 0v1600h632v-228h-373v-446h353v-228h-353v-470h373v-228h-632zM152 1682l156 265h151l155 -265h-168l-62 119l-63 -119h-169z" />
    <glyph glyph-name="Edieresis" unicode="&#xcb;" horiz-adv-x="763" 
d="M86 0v1600h632v-228h-373v-446h353v-228h-353v-470h373v-228h-632zM435 1710v176h176v-176h-176zM160 1710v176h175v-176h-175z" />
    <glyph glyph-name="Igrave" unicode="&#xcc;" horiz-adv-x="431" 
d="M86 0v1600h259v-1600h-259zM109 1680l-172 265h169l164 -265h-161z" />
    <glyph glyph-name="Iacute" unicode="&#xcd;" horiz-adv-x="431" 
d="M86 0v1600h259v-1600h-259zM143 1680l180 265h169l-189 -265h-160z" />
    <glyph glyph-name="Icircumflex" unicode="&#xce;" horiz-adv-x="431" 
d="M86 0v1600h259v-1600h-259zM-17 1682l156 265h151l155 -265h-168l-62 119l-63 -119h-169z" />
    <glyph glyph-name="Idieresis" unicode="&#xcf;" horiz-adv-x="431" 
d="M86 0v1600h259v-1600h-259zM265 1710v176h176v-176h-176zM-10 1710v176h175v-176h-175z" />
    <glyph glyph-name="Eth" unicode="&#xd0;" horiz-adv-x="1014" 
d="M54 946h517v-127h-517v127zM178 0v1600h368q204 0 294.5 -87t94.5 -287q3 -152 4 -288.5t0 -273t-4 -288.5q-4 -201 -95 -288.5t-294 -87.5h-368zM436 228h110q64 0 97 30t34 87q2 115 3.5 228.5t1.5 227.5t-1.5 228t-3.5 227q-1 57 -34 86.5t-97 29.5h-110v-1144z" />
    <glyph glyph-name="Ntilde" unicode="&#xd1;" horiz-adv-x="1016" 
d="M86 0v1600h382l113 -509l116 -863h50l-47 716l-21 656h250v-1600h-400l-115 536l-90 838h-54l44 -764l22 -610h-250zM650 1879h100q-5 -103 -40.5 -151.5t-102.5 -48.5q-41 0 -65 13.5t-40.5 31t-34 31t-44.5 13.5q-30 0 -39.5 -20.5t-12.5 -57.5h-100q7 112 45 161
t105 49q41 0 66.5 -13t42.5 -30.5t34 -31t42 -13.5t33.5 17t10.5 50z" />
    <glyph glyph-name="Ograve" unicode="&#xd2;" horiz-adv-x="924" 
d="M462 -18q-200 0 -289 84.5t-93 281.5q-2 109 -3.5 223t-1.5 229.5t1.5 229.5t3.5 224q4 196 93 280t289 84q201 0 288 -84t93 -280q3 -111 5 -225t2 -229.5t-2 -229t-5 -222.5q-6 -197 -93 -281.5t-288 -84.5zM462 193q62 0 92 27t31 81q4 113 6 240.5t2 260t-2 259.5
t-6 240q-1 53 -32 79.5t-91 26.5t-91 -26.5t-33 -79.5q-4 -113 -6.5 -240t-2.5 -259.5t2.5 -260t6.5 -240.5q2 -54 33 -81t91 -27zM357 1680l-172 265h169l164 -265h-161z" />
    <glyph glyph-name="Oacute" unicode="&#xd3;" horiz-adv-x="924" 
d="M462 -18q-200 0 -289 84.5t-93 281.5q-2 109 -3.5 223t-1.5 229.5t1.5 229.5t3.5 224q4 196 93 280t289 84q201 0 288 -84t93 -280q3 -111 5 -225t2 -229.5t-2 -229t-5 -222.5q-6 -197 -93 -281.5t-288 -84.5zM462 193q62 0 92 27t31 81q4 113 6 240.5t2 260t-2 259.5
t-6 240q-1 53 -32 79.5t-91 26.5t-91 -26.5t-33 -79.5q-4 -113 -6.5 -240t-2.5 -259.5t2.5 -260t6.5 -240.5q2 -54 33 -81t91 -27zM391 1680l180 265h169l-189 -265h-160z" />
    <glyph glyph-name="Ocircumflex" unicode="&#xd4;" horiz-adv-x="924" 
d="M462 -18q-200 0 -289 84.5t-93 281.5q-2 109 -3.5 223t-1.5 229.5t1.5 229.5t3.5 224q4 196 93 280t289 84q201 0 288 -84t93 -280q3 -111 5 -225t2 -229.5t-2 -229t-5 -222.5q-6 -197 -93 -281.5t-288 -84.5zM462 193q62 0 92 27t31 81q4 113 6 240.5t2 260t-2 259.5
t-6 240q-1 53 -32 79.5t-91 26.5t-91 -26.5t-33 -79.5q-4 -113 -6.5 -240t-2.5 -259.5t2.5 -260t6.5 -240.5q2 -54 33 -81t91 -27zM231 1682l156 265h151l155 -265h-168l-62 119l-63 -119h-169z" />
    <glyph glyph-name="Otilde" unicode="&#xd5;" horiz-adv-x="924" 
d="M462 -18q-200 0 -289 84.5t-93 281.5q-2 109 -3.5 223t-1.5 229.5t1.5 229.5t3.5 224q4 196 93 280t289 84q201 0 288 -84t93 -280q3 -111 5 -225t2 -229.5t-2 -229t-5 -222.5q-6 -197 -93 -281.5t-288 -84.5zM462 193q62 0 92 27t31 81q4 113 6 240.5t2 260t-2 259.5
t-6 240q-1 53 -32 79.5t-91 26.5t-91 -26.5t-33 -79.5q-4 -113 -6.5 -240t-2.5 -259.5t2.5 -260t6.5 -240.5q2 -54 33 -81t91 -27zM604 1879h100q-5 -103 -40.5 -151.5t-102.5 -48.5q-41 0 -65 13.5t-40.5 31t-34 31t-44.5 13.5q-30 0 -39.5 -20.5t-12.5 -57.5h-100
q7 112 45 161t105 49q41 0 66.5 -13t42.5 -30.5t34 -31t42 -13.5t33.5 17t10.5 50z" />
    <glyph glyph-name="Odieresis" unicode="&#xd6;" horiz-adv-x="924" 
d="M462 -18q-200 0 -289 84.5t-93 281.5q-2 109 -3.5 223t-1.5 229.5t1.5 229.5t3.5 224q4 196 93 280t289 84q201 0 288 -84t93 -280q3 -111 5 -225t2 -229.5t-2 -229t-5 -222.5q-6 -197 -93 -281.5t-288 -84.5zM462 193q62 0 92 27t31 81q4 113 6 240.5t2 260t-2 259.5
t-6 240q-1 53 -32 79.5t-91 26.5t-91 -26.5t-33 -79.5q-4 -113 -6.5 -240t-2.5 -259.5t2.5 -260t6.5 -240.5q2 -54 33 -81t91 -27zM513 1710v176h176v-176h-176zM238 1710v176h175v-176h-175z" />
    <glyph glyph-name="multiply" unicode="&#xd7;" horiz-adv-x="912" 
d="M224 360l-138 137l233 232l-233 233l138 137l232 -232l233 232l137 -137l-233 -233l233 -232l-137 -137l-233 233z" />
    <glyph glyph-name="Oslash" unicode="&#xd8;" horiz-adv-x="924" 
d="M462 -18q-200 0 -289 84.5t-93 281.5q-2 109 -3.5 223t-1.5 229.5t1.5 229.5t3.5 224q4 196 93 280t289 84q201 0 288 -84t93 -280q3 -111 5 -225t2 -229.5t-2 -229t-5 -222.5q-6 -197 -93 -281.5t-288 -84.5zM462 193q62 0 92 27t31 81q3 79 5 162.5t2 170.5v177
l-258 -353q0 -40 1.5 -79.5t2.5 -77.5q2 -54 33 -81t91 -27zM330 736l260 354q-1 53 -2 105.5t-3 105.5q-1 53 -32 79.5t-91 26.5t-91 -26.5t-33 -79.5q-3 -86 -5 -179t-3 -190t0 -196z" />
    <glyph glyph-name="Ugrave" unicode="&#xd9;" horiz-adv-x="906" 
d="M454 -18q-203 0 -291 84.5t-91 281.5q-4 311 -4 626.5t4 625.5h259q-4 -207 -4.5 -428.5t0.5 -442.5t3 -428q0 -53 32 -80.5t92 -27.5q61 0 91.5 27.5t30.5 80.5q2 207 3.5 428t1 442.5t-4.5 428.5h258q5 -310 5 -625.5t-5 -626.5q-3 -197 -90 -281.5t-290 -84.5z
M347 1680l-172 265h169l164 -265h-161z" />
    <glyph glyph-name="Uacute" unicode="&#xda;" horiz-adv-x="906" 
d="M454 -18q-203 0 -291 84.5t-91 281.5q-4 311 -4 626.5t4 625.5h259q-4 -207 -4.5 -428.5t0.5 -442.5t3 -428q0 -53 32 -80.5t92 -27.5q61 0 91.5 27.5t30.5 80.5q2 207 3.5 428t1 442.5t-4.5 428.5h258q5 -310 5 -625.5t-5 -626.5q-3 -197 -90 -281.5t-290 -84.5z
M382 1680l180 265h169l-189 -265h-160z" />
    <glyph glyph-name="Ucircumflex" unicode="&#xdb;" horiz-adv-x="906" 
d="M454 -18q-203 0 -291 84.5t-91 281.5q-4 311 -4 626.5t4 625.5h259q-4 -207 -4.5 -428.5t0.5 -442.5t3 -428q0 -53 32 -80.5t92 -27.5q61 0 91.5 27.5t30.5 80.5q2 207 3.5 428t1 442.5t-4.5 428.5h258q5 -310 5 -625.5t-5 -626.5q-3 -197 -90 -281.5t-290 -84.5z
M221 1682l156 265h151l155 -265h-168l-62 119l-63 -119h-169z" />
    <glyph glyph-name="Udieresis" unicode="&#xdc;" horiz-adv-x="906" 
d="M454 -18q-203 0 -291 84.5t-91 281.5q-4 311 -4 626.5t4 625.5h259q-4 -207 -4.5 -428.5t0.5 -442.5t3 -428q0 -53 32 -80.5t92 -27.5q61 0 91.5 27.5t30.5 80.5q2 207 3.5 428t1 442.5t-4.5 428.5h258q5 -310 5 -625.5t-5 -626.5q-3 -197 -90 -281.5t-290 -84.5z
M504 1710v176h176v-176h-176zM229 1710v176h175v-176h-175z" />
    <glyph glyph-name="Yacute" unicode="&#xdd;" horiz-adv-x="860" 
d="M301 0v390v2l-280 1208h264l84 -404l36 -467h51l35 467l84 404h264l-280 -1209v-2v-389h-258zM349 1680l180 265h169l-189 -265h-160z" />
    <glyph glyph-name="Thorn" unicode="&#xde;" horiz-adv-x="871" 
d="M86 0v1600h259v-253h92q202 0 292 -83t96 -274q3 -96 3 -176.5t-3 -171.5q-7 -191 -97 -274t-292 -83h-91v-285h-259zM345 512h91q65 0 96.5 30t34.5 86q3 57 4 122.5t0 131t-4 121.5q-3 58 -34.5 87t-95.5 29h-92v-607z" />
    <glyph glyph-name="germandbls" unicode="&#xdf;" horiz-adv-x="917" 
d="M86 0v1235q0 131 40.5 211t125 117t218.5 37q202 0 288.5 -83t86.5 -274q1 -46 1 -84.5t-2 -75.5q-7 -102 -45.5 -161.5t-119.5 -87.5v-44q88 -26 130.5 -87.5t45.5 -170.5q1 -31 1.5 -59t0 -56t-1.5 -60q-5 -127 -46 -205.5t-124.5 -115t-217.5 -36.5h-37v228h37
q64 0 97 33.5t33 98.5q1 42 1 80.5t-1 79.5q0 97 -31 137.5t-101 40.5h-24v228h15q65 0 98 42t33 122q1 40 0.5 66l-1 52t-0.5 65q-1 57 -30 86.5t-93 29.5q-60 0 -87.5 -31t-29.5 -84l-1 -1274h-259z" />
    <glyph glyph-name="agrave" unicode="&#xe0;" horiz-adv-x="887" 
d="M315 -15q-124 0 -182.5 62.5t-71.5 209.5q-1 20 -1 46t1 46q6 79 34.5 136t88.5 101.5t159 83.5q52 22 101 37.5t102 30.5v180q0 52 -21 79t-81 27q-51 0 -72.5 -22t-24.5 -76q-1 -17 -1.5 -50.5t0 -68.5t1.5 -56h-251q-1 18 -2 64.5t0 81.5q5 112 40 183t111.5 104.5
t205.5 33.5q135 0 211.5 -37t108 -116.5t31.5 -207.5l-1 -857h-258v124h-34q-32 -71 -75 -105t-119 -34zM420 171q42 0 74 24t51 65v307q-36 -9 -70 -21.5t-66 -30.5q-53 -28 -72 -70.5t-22 -95.5v-36.5t1 -34.5q5 -52 31 -79.5t73 -27.5zM343 1280l-172 265h169l164 -265
h-161z" />
    <glyph glyph-name="aacute" unicode="&#xe1;" horiz-adv-x="887" 
d="M315 -15q-124 0 -182.5 62.5t-71.5 209.5q-1 20 -1 46t1 46q6 79 34.5 136t88.5 101.5t159 83.5q52 22 101 37.5t102 30.5v180q0 52 -21 79t-81 27q-51 0 -72.5 -22t-24.5 -76q-1 -17 -1.5 -50.5t0 -68.5t1.5 -56h-251q-1 18 -2 64.5t0 81.5q5 112 40 183t111.5 104.5
t205.5 33.5q135 0 211.5 -37t108 -116.5t31.5 -207.5l-1 -857h-258v124h-34q-32 -71 -75 -105t-119 -34zM420 171q42 0 74 24t51 65v307q-36 -9 -70 -21.5t-66 -30.5q-53 -28 -72 -70.5t-22 -95.5v-36.5t1 -34.5q5 -52 31 -79.5t73 -27.5zM377 1280l180 265h169l-189 -265
h-160z" />
    <glyph glyph-name="acircumflex" unicode="&#xe2;" horiz-adv-x="887" 
d="M315 -15q-124 0 -182.5 62.5t-71.5 209.5q-1 20 -1 46t1 46q6 79 34.5 136t88.5 101.5t159 83.5q52 22 101 37.5t102 30.5v180q0 52 -21 79t-81 27q-51 0 -72.5 -22t-24.5 -76q-1 -17 -1.5 -50.5t0 -68.5t1.5 -56h-251q-1 18 -2 64.5t0 81.5q5 112 40 183t111.5 104.5
t205.5 33.5q135 0 211.5 -37t108 -116.5t31.5 -207.5l-1 -857h-258v124h-34q-32 -71 -75 -105t-119 -34zM420 171q42 0 74 24t51 65v307q-36 -9 -70 -21.5t-66 -30.5q-53 -28 -72 -70.5t-22 -95.5v-36.5t1 -34.5q5 -52 31 -79.5t73 -27.5zM217 1282l156 265h151l155 -265
h-168l-62 119l-63 -119h-169z" />
    <glyph glyph-name="atilde" unicode="&#xe3;" horiz-adv-x="887" 
d="M315 -15q-124 0 -182.5 62.5t-71.5 209.5q-1 20 -1 46t1 46q6 79 34.5 136t88.5 101.5t159 83.5q52 22 101 37.5t102 30.5v180q0 52 -21 79t-81 27q-51 0 -72.5 -22t-24.5 -76q-1 -17 -1.5 -50.5t0 -68.5t1.5 -56h-251q-1 18 -2 64.5t0 81.5q5 112 40 183t111.5 104.5
t205.5 33.5q135 0 211.5 -37t108 -116.5t31.5 -207.5l-1 -857h-258v124h-34q-32 -71 -75 -105t-119 -34zM420 171q42 0 74 24t51 65v307q-36 -9 -70 -21.5t-66 -30.5q-53 -28 -72 -70.5t-22 -95.5v-36.5t1 -34.5q5 -52 31 -79.5t73 -27.5zM589 1479h100
q-5 -103 -40.5 -151.5t-102.5 -48.5q-41 0 -65 13.5t-40.5 31t-34 31t-44.5 13.5q-30 0 -39.5 -20.5t-12.5 -57.5h-100q7 112 45 161t105 49q41 0 66.5 -13t42.5 -30.5t34 -31t42 -13.5t33.5 17t10.5 50z" />
    <glyph glyph-name="adieresis" unicode="&#xe4;" horiz-adv-x="887" 
d="M315 -15q-124 0 -182.5 62.5t-71.5 209.5q-1 20 -1 46t1 46q6 79 34.5 136t88.5 101.5t159 83.5q52 22 101 37.5t102 30.5v180q0 52 -21 79t-81 27q-51 0 -72.5 -22t-24.5 -76q-1 -17 -1.5 -50.5t0 -68.5t1.5 -56h-251q-1 18 -2 64.5t0 81.5q5 112 40 183t111.5 104.5
t205.5 33.5q135 0 211.5 -37t108 -116.5t31.5 -207.5l-1 -857h-258v124h-34q-32 -71 -75 -105t-119 -34zM420 171q42 0 74 24t51 65v307q-36 -9 -70 -21.5t-66 -30.5q-53 -28 -72 -70.5t-22 -95.5v-36.5t1 -34.5q5 -52 31 -79.5t73 -27.5zM499 1310v176h176v-176h-176z
M224 1310v176h175v-176h-175z" />
    <glyph glyph-name="aring" unicode="&#xe5;" horiz-adv-x="887" 
d="M315 -15q-124 0 -182.5 62.5t-71.5 209.5q-1 20 -1 46t1 46q6 79 34.5 136t88.5 101.5t159 83.5q52 22 101 37.5t102 30.5v180q0 52 -21 79t-81 27q-51 0 -72.5 -22t-24.5 -76q-1 -17 -1.5 -50.5t0 -68.5t1.5 -56h-251q-1 18 -2 64.5t0 81.5q5 112 40 183t111.5 104.5
t205.5 33.5q135 0 211.5 -37t108 -116.5t31.5 -207.5l-1 -857h-258v124h-34q-32 -71 -75 -105t-119 -34zM420 171q42 0 74 24t51 65v307q-36 -9 -70 -21.5t-66 -30.5q-53 -28 -72 -70.5t-22 -95.5v-36.5t1 -34.5q5 -52 31 -79.5t73 -27.5zM450 1271q-80 0 -137.5 57
t-57.5 137q0 81 57.5 138t137.5 57t137 -57t57 -138q0 -80 -57 -137t-137 -57zM450 1406q25 0 42 17.5t17 41.5q0 26 -17 42.5t-42 16.5t-42 -16.5t-17 -42.5q0 -24 17 -41.5t42 -17.5z" />
    <glyph glyph-name="ae" unicode="&#xe6;" horiz-adv-x="1332" 
d="M315 -15q-112 0 -178 62.5t-76 209.5q-1 20 -1 46t1 46q9 114 75 184.5t207 125.5q52 21 101 37.5t101 31.5v63.5v63v63.5q0 35 -8.5 58.5t-30.5 35.5t-62 12q-51 0 -72.5 -22t-24.5 -76q-1 -17 -1.5 -50.5t0 -68.5t1.5 -56h-251q-1 12 -2 38t-1 55.5t1 52.5
q5 112 40 183t111.5 104.5t205.5 33.5q77 0 133 -11.5t96 -37.5q43 26 101 37.5t131 11.5q183 0 265.5 -74.5t90.5 -246.5q1 -18 1.5 -54.5t0.5 -83.5t-1 -99t-3 -100h-466v-138.5v-139.5q0 -58 29 -82t85 -24q52 0 75 24t26 82q2 28 2 72.5t-2 98.5h251q2 -19 3 -64t-1 -80
q-8 -175 -89.5 -251t-263.5 -76q-126 0 -207.5 34t-120.5 108h-20q-34 -72 -101 -105.5t-151 -33.5zM420 171q27 0 56 13.5t49.5 56.5t21.5 130q0 42 -1 89t-1 96q-31 -9 -66.5 -21.5t-69.5 -31.5q-51 -27 -70 -64t-24 -90v-36t1 -35q5 -52 31 -79.5t73 -27.5zM800 740h217
q0 51 -0.5 104t-1.5 82q0 52 -25 75t-78 23q-56 0 -84 -23t-28 -75v-94.5v-91.5z" />
    <glyph glyph-name="ccedilla" unicode="&#xe7;" horiz-adv-x="858" 
d="M543 751q1 22 1.5 57t0 68t-1.5 50q-2 54 -26 76t-78 22q-55 0 -79.5 -22t-26.5 -76q-2 -80 -3 -161t-1 -162t1 -161t3 -160q2 -58 27.5 -82t81.5 -24q52 0 75.5 24t25.5 82q2 28 2 72.5t-2 97.5h251q2 -18 3 -63t-1 -80q-8 -175 -90 -251t-264 -76q-187 0 -272 76
t-95 251q-2 46 -3 122.5t-1 163.5t1 165.5t3 126.5q12 179 96 255t268 76t267 -74.5t90 -246.5q2 -34 1 -80t-3 -66h-251zM211 -299v123h62q59 0 83.5 24t16.5 78l-14 91h134l14 -91q16 -119 -40.5 -172t-193.5 -53h-62z" />
    <glyph glyph-name="egrave" unicode="&#xe8;" horiz-adv-x="860" 
d="M443 -18q-187 0 -272.5 76t-95.5 251q-2 46 -3 122.5t-1 163.5t1 165.5t3 126.5q12 179 96.5 255t268.5 76q183 0 265.5 -74.5t90.5 -246.5q1 -24 1.5 -80.5t0 -126.5t-3.5 -134h-464q0 -69 1.5 -137.5t2.5 -136.5q2 -58 27 -82t82 -24q52 0 74.5 24t25.5 82q2 28 2 72.5
t-2 98.5h251q2 -19 3 -64t-1 -80q-8 -175 -89.5 -251t-263.5 -76zM330 736h215v82.5t-0.5 68t-1.5 39.5q-3 52 -26.5 75t-76.5 23q-56 0 -80 -23t-26 -75q-1 -49 -2 -96zM329 1280l-172 265h169l164 -265h-161z" />
    <glyph glyph-name="eacute" unicode="&#xe9;" horiz-adv-x="860" 
d="M443 -18q-187 0 -272.5 76t-95.5 251q-2 46 -3 122.5t-1 163.5t1 165.5t3 126.5q12 179 96.5 255t268.5 76q183 0 265.5 -74.5t90.5 -246.5q1 -24 1.5 -80.5t0 -126.5t-3.5 -134h-464q0 -69 1.5 -137.5t2.5 -136.5q2 -58 27 -82t82 -24q52 0 74.5 24t25.5 82q2 28 2 72.5
t-2 98.5h251q2 -19 3 -64t-1 -80q-8 -175 -89.5 -251t-263.5 -76zM330 736h215v82.5t-0.5 68t-1.5 39.5q-3 52 -26.5 75t-76.5 23q-56 0 -80 -23t-26 -75q-1 -49 -2 -96zM363 1280l180 265h169l-189 -265h-160z" />
    <glyph glyph-name="ecircumflex" unicode="&#xea;" horiz-adv-x="860" 
d="M443 -18q-187 0 -272.5 76t-95.5 251q-2 46 -3 122.5t-1 163.5t1 165.5t3 126.5q12 179 96.5 255t268.5 76q183 0 265.5 -74.5t90.5 -246.5q1 -24 1.5 -80.5t0 -126.5t-3.5 -134h-464q0 -69 1.5 -137.5t2.5 -136.5q2 -58 27 -82t82 -24q52 0 74.5 24t25.5 82q2 28 2 72.5
t-2 98.5h251q2 -19 3 -64t-1 -80q-8 -175 -89.5 -251t-263.5 -76zM330 736h215v82.5t-0.5 68t-1.5 39.5q-3 52 -26.5 75t-76.5 23q-56 0 -80 -23t-26 -75q-1 -49 -2 -96zM203 1282l156 265h151l155 -265h-168l-62 119l-63 -119h-169z" />
    <glyph glyph-name="edieresis" unicode="&#xeb;" horiz-adv-x="860" 
d="M443 -18q-187 0 -272.5 76t-95.5 251q-2 46 -3 122.5t-1 163.5t1 165.5t3 126.5q12 179 96.5 255t268.5 76q183 0 265.5 -74.5t90.5 -246.5q1 -24 1.5 -80.5t0 -126.5t-3.5 -134h-464q0 -69 1.5 -137.5t2.5 -136.5q2 -58 27 -82t82 -24q52 0 74.5 24t25.5 82q2 28 2 72.5
t-2 98.5h251q2 -19 3 -64t-1 -80q-8 -175 -89.5 -251t-263.5 -76zM330 736h215v82.5t-0.5 68t-1.5 39.5q-3 52 -26.5 75t-76.5 23q-56 0 -80 -23t-26 -75q-1 -49 -2 -96zM486 1310v176h176v-176h-176zM211 1310v176h175v-176h-175z" />
    <glyph glyph-name="igrave" unicode="&#xec;" horiz-adv-x="436" 
d="M89 0v1200h258v-1200h-258zM111 1280l-172 265h169l164 -265h-161z" />
    <glyph glyph-name="iacute" unicode="&#xed;" horiz-adv-x="436" 
d="M89 0v1200h258v-1200h-258zM146 1280l180 265h169l-189 -265h-160z" />
    <glyph glyph-name="icircumflex" unicode="&#xee;" horiz-adv-x="436" 
d="M89 0v1200h258v-1200h-258zM-15 1282l156 265h151l155 -265h-168l-62 119l-63 -119h-169z" />
    <glyph glyph-name="idieresis" unicode="&#xef;" horiz-adv-x="436" 
d="M89 0v1200h258v-1200h-258zM268 1310v176h176v-176h-176zM-7 1310v176h175v-176h-175z" />
    <glyph glyph-name="eth" unicode="&#xf0;" horiz-adv-x="926" 
d="M474 -19q-200 0 -288.5 85t-98.5 282q-2 51 -3 119t-0.5 143t2.5 147q2 144 76 228.5t186 84.5q74 0 124.5 -28t73.5 -75h24q-17 65 -44 123.5t-66 109.5l-120 -59l-44 86l98 50q-32 36 -70 66t-82 56l139 219q74 -46 134.5 -97t109.5 -111l131 65l43 -86l-114 -57
q83 -124 122.5 -276.5t47.5 -337.5q1 -51 1.5 -118.5t0 -134t-1.5 -117.5q-6 -131 -45 -212t-120 -118t-216 -37zM473 192q58 0 89.5 28t33.5 81q3 70 4.5 148t0.5 159t-5 157q-2 47 -36.5 71.5t-94.5 24.5q-56 0 -87.5 -27.5t-33.5 -81.5q-1 -64 -2 -142.5t0 -158.5t3 -150
q3 -53 35 -81t93 -28z" />
    <glyph glyph-name="ntilde" unicode="&#xf1;" horiz-adv-x="939" 
d="M89 0v1200h258v-124h46q39 68 83.5 105t131.5 37q117 0 182 -72t65 -240v-906h-258v927q0 53 -24.5 77.5t-73.5 24.5q-43 0 -88.5 -25.5t-63.5 -69.5v-934h-258zM613 1479h100q-5 -103 -40.5 -151.5t-102.5 -48.5q-41 0 -65 13.5t-40.5 31t-34 31t-44.5 13.5
q-30 0 -39.5 -20.5t-12.5 -57.5h-100q7 112 45 161t105 49q41 0 66.5 -13t42.5 -30.5t34 -31t42 -13.5t33.5 17t10.5 50z" />
    <glyph glyph-name="ograve" unicode="&#xf2;" horiz-adv-x="897" 
d="M450 -18q-134 0 -213.5 36.5t-116.5 117t-44 212.5q-2 46 -3.5 111.5t-1.5 138t1 140t4 116.5q7 130 43.5 210.5t116 117t214.5 36.5t213.5 -37t115 -117.5t43.5 -209.5q2 -46 3 -112t1 -138.5t-1 -139.5t-3 -116q-7 -130 -43.5 -211t-115 -118t-213.5 -37zM450 176
q61 0 86.5 27t27.5 81q2 79 3.5 158t1.5 159t-1.5 159t-3.5 157q-2 54 -27.5 80.5t-86.5 26.5q-60 0 -87 -26.5t-29 -80.5q-2 -78 -3.5 -157.5t-1.5 -159t1.5 -159t3.5 -157.5q2 -54 29 -81t87 -27zM343 1280l-172 265h169l164 -265h-161z" />
    <glyph glyph-name="oacute" unicode="&#xf3;" horiz-adv-x="897" 
d="M450 -18q-134 0 -213.5 36.5t-116.5 117t-44 212.5q-2 46 -3.5 111.5t-1.5 138t1 140t4 116.5q7 130 43.5 210.5t116 117t214.5 36.5t213.5 -37t115 -117.5t43.5 -209.5q2 -46 3 -112t1 -138.5t-1 -139.5t-3 -116q-7 -130 -43.5 -211t-115 -118t-213.5 -37zM450 176
q61 0 86.5 27t27.5 81q2 79 3.5 158t1.5 159t-1.5 159t-3.5 157q-2 54 -27.5 80.5t-86.5 26.5q-60 0 -87 -26.5t-29 -80.5q-2 -78 -3.5 -157.5t-1.5 -159t1.5 -159t3.5 -157.5q2 -54 29 -81t87 -27zM377 1280l180 265h169l-189 -265h-160z" />
    <glyph glyph-name="ocircumflex" unicode="&#xf4;" horiz-adv-x="897" 
d="M450 -18q-134 0 -213.5 36.5t-116.5 117t-44 212.5q-2 46 -3.5 111.5t-1.5 138t1 140t4 116.5q7 130 43.5 210.5t116 117t214.5 36.5t213.5 -37t115 -117.5t43.5 -209.5q2 -46 3 -112t1 -138.5t-1 -139.5t-3 -116q-7 -130 -43.5 -211t-115 -118t-213.5 -37zM450 176
q61 0 86.5 27t27.5 81q2 79 3.5 158t1.5 159t-1.5 159t-3.5 157q-2 54 -27.5 80.5t-86.5 26.5q-60 0 -87 -26.5t-29 -80.5q-2 -78 -3.5 -157.5t-1.5 -159t1.5 -159t3.5 -157.5q2 -54 29 -81t87 -27zM217 1282l156 265h151l155 -265h-168l-62 119l-63 -119h-169z" />
    <glyph glyph-name="otilde" unicode="&#xf5;" horiz-adv-x="897" 
d="M450 -18q-134 0 -213.5 36.5t-116.5 117t-44 212.5q-2 46 -3.5 111.5t-1.5 138t1 140t4 116.5q7 130 43.5 210.5t116 117t214.5 36.5t213.5 -37t115 -117.5t43.5 -209.5q2 -46 3 -112t1 -138.5t-1 -139.5t-3 -116q-7 -130 -43.5 -211t-115 -118t-213.5 -37zM450 176
q61 0 86.5 27t27.5 81q2 79 3.5 158t1.5 159t-1.5 159t-3.5 157q-2 54 -27.5 80.5t-86.5 26.5q-60 0 -87 -26.5t-29 -80.5q-2 -78 -3.5 -157.5t-1.5 -159t1.5 -159t3.5 -157.5q2 -54 29 -81t87 -27zM590 1479h100q-5 -103 -40.5 -151.5t-102.5 -48.5q-41 0 -65 13.5
t-40.5 31t-34 31t-44.5 13.5q-30 0 -39.5 -20.5t-12.5 -57.5h-100q7 112 45 161t105 49q41 0 66.5 -13t42.5 -30.5t34 -31t42 -13.5t33.5 17t10.5 50z" />
    <glyph glyph-name="odieresis" unicode="&#xf6;" horiz-adv-x="897" 
d="M450 -18q-134 0 -213.5 36.5t-116.5 117t-44 212.5q-2 46 -3.5 111.5t-1.5 138t1 140t4 116.5q7 130 43.5 210.5t116 117t214.5 36.5t213.5 -37t115 -117.5t43.5 -209.5q2 -46 3 -112t1 -138.5t-1 -139.5t-3 -116q-7 -130 -43.5 -211t-115 -118t-213.5 -37zM450 176
q61 0 86.5 27t27.5 81q2 79 3.5 158t1.5 159t-1.5 159t-3.5 157q-2 54 -27.5 80.5t-86.5 26.5q-60 0 -87 -26.5t-29 -80.5q-2 -78 -3.5 -157.5t-1.5 -159t1.5 -159t3.5 -157.5q2 -54 29 -81t87 -27zM499 1310v176h176v-176h-176zM224 1310v176h175v-176h-175z" />
    <glyph glyph-name="divide" unicode="&#xf7;" horiz-adv-x="1030" 
d="M86 632v195h858v-195h-858zM416 943v199h199v-199h-199zM416 317v199h199v-199h-199z" />
    <glyph glyph-name="oslash" unicode="&#xf8;" horiz-adv-x="897" 
d="M135 362l556 574l84 -99l-552 -568zM450 -18q-134 0 -213.5 36.5t-116.5 117t-44 212.5q-2 46 -3.5 111.5t-1.5 138t1 140t4 116.5q7 130 43.5 210.5t116 117t214.5 36.5t213.5 -37t115 -117.5t43.5 -209.5q2 -46 3 -112t1 -138.5t-1 -139.5t-3 -116q-7 -130 -43.5 -211
t-115 -118t-213.5 -37zM450 176q61 0 86.5 27t27.5 81q2 79 3.5 158t1.5 159t-1.5 159t-3.5 157q-2 54 -27.5 80.5t-86.5 26.5q-60 0 -87 -26.5t-29 -80.5q-2 -78 -3.5 -157.5t-1.5 -159t1.5 -159t3.5 -157.5q2 -54 29 -81t87 -27z" />
    <glyph glyph-name="ugrave" unicode="&#xf9;" horiz-adv-x="932" 
d="M334 -18q-116 0 -184.5 72.5t-68.5 240.5v905h258v-927q0 -53 23.5 -77.5t71.5 -24.5q43 0 88 25.5t63 69.5v934h259v-1200h-259v124h-36q-41 -76 -92 -109t-123 -33zM353 1280l-172 265h169l164 -265h-161z" />
    <glyph glyph-name="uacute" unicode="&#xfa;" horiz-adv-x="932" 
d="M334 -18q-116 0 -184.5 72.5t-68.5 240.5v905h258v-927q0 -53 23.5 -77.5t71.5 -24.5q43 0 88 25.5t63 69.5v934h259v-1200h-259v124h-36q-41 -76 -92 -109t-123 -33zM387 1280l180 265h169l-189 -265h-160z" />
    <glyph glyph-name="ucircumflex" unicode="&#xfb;" horiz-adv-x="932" 
d="M334 -18q-116 0 -184.5 72.5t-68.5 240.5v905h258v-927q0 -53 23.5 -77.5t71.5 -24.5q43 0 88 25.5t63 69.5v934h259v-1200h-259v124h-36q-41 -76 -92 -109t-123 -33zM227 1282l156 265h151l155 -265h-168l-62 119l-63 -119h-169z" />
    <glyph glyph-name="udieresis" unicode="&#xfc;" horiz-adv-x="932" 
d="M334 -18q-116 0 -184.5 72.5t-68.5 240.5v905h258v-927q0 -53 23.5 -77.5t71.5 -24.5q43 0 88 25.5t63 69.5v934h259v-1200h-259v124h-36q-41 -76 -92 -109t-123 -33zM509 1310v176h176v-176h-176zM234 1310v176h175v-176h-175z" />
    <glyph glyph-name="yacute" unicode="&#xfd;" horiz-adv-x="832" 
d="M210 -418q-32 0 -71.5 3.5t-73.5 9.5v192q26 -1 71 -3t74 -2q78 0 108.5 24.5t37.5 82.5l15 111h-138l-205 1200h262l63 -553l49 -456h64l26 456l51 553h262l-191 -1291q-17 -116 -59.5 -188t-124.5 -105.5t-220 -33.5zM345 1280l180 265h169l-189 -265h-160z" />
    <glyph glyph-name="thorn" unicode="&#xfe;" horiz-adv-x="939" 
d="M86 -400v2000h259v-524h37q39 69 83 105.5t132 36.5q118 0 181 -72t71 -240q2 -53 3.5 -133t1.5 -169.5t-1.5 -171.5t-3.5 -137q-8 -168 -78 -240.5t-187 -72.5q-65 0 -111.5 32.5t-90.5 109.5h-37v-524h-259zM480 171q48 0 78 24.5t33 77.5q4 71 6 155t1.5 172t-2 172
t-5.5 155q-3 53 -24.5 77.5t-70.5 24.5q-44 0 -88.5 -25t-62.5 -70v-668q21 -51 52.5 -73t82.5 -22z" />
    <glyph glyph-name="ydieresis" unicode="&#xff;" horiz-adv-x="832" 
d="M210 -418q-32 0 -71.5 3.5t-73.5 9.5v192q26 -1 71 -3t74 -2q78 0 108.5 24.5t37.5 82.5l15 111h-138l-205 1200h262l63 -553l49 -456h64l26 456l51 553h262l-191 -1291q-17 -116 -59.5 -188t-124.5 -105.5t-220 -33.5zM467 1310v176h176v-176h-176zM192 1310v176h175
v-176h-175z" />
    <glyph glyph-name="Amacron" unicode="&#x100;" 
d="M26 0l209 1600h416l209 -1600h-265l-36 367h-232l-36 -367h-265zM351 595h184l-35 352l-29 425h-56l-29 -425zM134 1784h614v-120h-614v120z" />
    <glyph glyph-name="amacron" unicode="&#x101;" horiz-adv-x="887" 
d="M315 -15q-124 0 -182.5 62.5t-71.5 209.5q-1 20 -1 46t1 46q6 79 34.5 136t88.5 101.5t159 83.5q52 22 101 37.5t102 30.5v180q0 52 -21 79t-81 27q-51 0 -72.5 -22t-24.5 -76q-1 -17 -1.5 -50.5t0 -68.5t1.5 -56h-251q-1 18 -2 64.5t0 81.5q5 112 40 183t111.5 104.5
t205.5 33.5q135 0 211.5 -37t108 -116.5t31.5 -207.5l-1 -857h-258v124h-34q-32 -71 -75 -105t-119 -34zM420 171q42 0 74 24t51 65v307q-36 -9 -70 -21.5t-66 -30.5q-53 -28 -72 -70.5t-22 -95.5v-36.5t1 -34.5q5 -52 31 -79.5t73 -27.5zM140 1384h614v-120h-614v120z" />
    <glyph glyph-name="Abreve" unicode="&#x102;" 
d="M26 0l209 1600h416l209 -1600h-265l-36 367h-232l-36 -367h-265zM351 595h184l-35 352l-29 425h-56l-29 -425zM444 1671q-142 0 -207 63.5t-73 210.5h156q0 -76 28.5 -109t95.5 -33q66 0 94.5 33t29.5 109h155q-9 -147 -73.5 -210.5t-205.5 -63.5z" />
    <glyph glyph-name="abreve" unicode="&#x103;" horiz-adv-x="887" 
d="M315 -15q-124 0 -182.5 62.5t-71.5 209.5q-1 20 -1 46t1 46q6 79 34.5 136t88.5 101.5t159 83.5q52 22 101 37.5t102 30.5v180q0 52 -21 79t-81 27q-51 0 -72.5 -22t-24.5 -76q-1 -17 -1.5 -50.5t0 -68.5t1.5 -56h-251q-1 18 -2 64.5t0 81.5q5 112 40 183t111.5 104.5
t205.5 33.5q135 0 211.5 -37t108 -116.5t31.5 -207.5l-1 -857h-258v124h-34q-32 -71 -75 -105t-119 -34zM420 171q42 0 74 24t51 65v307q-36 -9 -70 -21.5t-66 -30.5q-53 -28 -72 -70.5t-22 -95.5v-36.5t1 -34.5q5 -52 31 -79.5t73 -27.5zM450 1289q-142 0 -207 63.5
t-73 210.5h156q0 -76 28.5 -109t95.5 -33q66 0 94.5 33t29.5 109h155q-9 -147 -73.5 -210.5t-205.5 -63.5z" />
    <glyph glyph-name="Aogonek" unicode="&#x104;" 
d="M26 0l209 1600h416l209 -1600h-265l-36 367h-232l-36 -367h-265zM351 595h184l-35 352l-29 425h-56l-29 -425zM877 -316h-63q-136 0 -193 53t-40 172l14 91h134l-14 -91q-7 -54 16.5 -78t82.5 -24h63v-123z" />
    <glyph glyph-name="aogonek" unicode="&#x105;" horiz-adv-x="887" 
d="M315 -15q-124 0 -182.5 62.5t-71.5 209.5q-1 20 -1 46t1 46q6 79 34.5 136t88.5 101.5t159 83.5q52 22 101 37.5t102 30.5v180q0 52 -21 79t-81 27q-51 0 -72.5 -22t-24.5 -76q-1 -17 -1.5 -50.5t0 -68.5t1.5 -56h-251q-1 18 -2 64.5t0 81.5q5 112 40 183t111.5 104.5
t205.5 33.5q135 0 211.5 -37t108 -116.5t31.5 -207.5l-1 -857h-258v124h-34q-32 -71 -75 -105t-119 -34zM420 171q42 0 74 24t51 65v307q-36 -9 -70 -21.5t-66 -30.5q-53 -28 -72 -70.5t-22 -95.5v-36.5t1 -34.5q5 -52 31 -79.5t73 -27.5zM823 -310h-63q-136 0 -193 53
t-40 172l14 91h134l-14 -91q-7 -54 16.5 -78t82.5 -24h63v-123z" />
    <glyph glyph-name="Cacute" unicode="&#x106;" horiz-adv-x="910" 
d="M460 -19q-204 0 -290.5 85t-90.5 282q-2 98 -3 214t-1 238t1 238.5t3 215.5q3 170 92.5 267t288.5 97q196 0 284 -84.5t93 -280.5q1 -35 1 -78t-1 -86.5t-2 -77.5h-258q1 41 2 92.5t1 103.5t-1 93q-1 53 -31.5 80t-87.5 27q-59 0 -90 -27t-33 -80q-4 -116 -5.5 -243
t-1.5 -257t1.5 -256.5t5.5 -242.5q2 -54 33 -81.5t90 -27.5q62 0 94 27.5t33 81.5q1 41 1.5 94t0 106t-1.5 93h258q2 -57 2 -122.5t-2 -123.5q-5 -197 -94.5 -282t-290.5 -85zM380 1680l180 265h169l-189 -265h-160z" />
    <glyph glyph-name="cacute" unicode="&#x107;" horiz-adv-x="858" 
d="M543 751q1 22 1.5 57t0 68t-1.5 50q-2 54 -26 76t-78 22q-55 0 -79.5 -22t-26.5 -76q-2 -80 -3 -161t-1 -162t1 -161t3 -160q2 -58 27.5 -82t81.5 -24q52 0 75.5 24t25.5 82q2 28 2 72.5t-2 97.5h251q2 -18 3 -63t-1 -80q-8 -175 -90 -251t-264 -76q-187 0 -272 76
t-95 251q-2 46 -3 122.5t-1 163.5t1 165.5t3 126.5q12 179 96 255t268 76t267 -74.5t90 -246.5q2 -34 1 -80t-3 -66h-251zM367 1280l180 265h169l-189 -265h-160z" />
    <glyph glyph-name="Ccircumflex" unicode="&#x108;" horiz-adv-x="910" 
d="M460 -19q-204 0 -290.5 85t-90.5 282q-2 98 -3 214t-1 238t1 238.5t3 215.5q3 170 92.5 267t288.5 97q196 0 284 -84.5t93 -280.5q1 -35 1 -78t-1 -86.5t-2 -77.5h-258q1 41 2 92.5t1 103.5t-1 93q-1 53 -31.5 80t-87.5 27q-59 0 -90 -27t-33 -80q-4 -116 -5.5 -243
t-1.5 -257t1.5 -256.5t5.5 -242.5q2 -54 33 -81.5t90 -27.5q62 0 94 27.5t33 81.5q1 41 1.5 94t0 106t-1.5 93h258q2 -57 2 -122.5t-2 -123.5q-5 -197 -94.5 -282t-290.5 -85zM220 1682l156 265h151l155 -265h-168l-62 119l-63 -119h-169z" />
    <glyph glyph-name="ccircumflex" unicode="&#x109;" horiz-adv-x="858" 
d="M543 751q1 22 1.5 57t0 68t-1.5 50q-2 54 -26 76t-78 22q-55 0 -79.5 -22t-26.5 -76q-2 -80 -3 -161t-1 -162t1 -161t3 -160q2 -58 27.5 -82t81.5 -24q52 0 75.5 24t25.5 82q2 28 2 72.5t-2 97.5h251q2 -18 3 -63t-1 -80q-8 -175 -90 -251t-264 -76q-187 0 -272 76
t-95 251q-2 46 -3 122.5t-1 163.5t1 165.5t3 126.5q12 179 96 255t268 76t267 -74.5t90 -246.5q2 -34 1 -80t-3 -66h-251zM206 1282l156 265h151l155 -265h-168l-62 119l-63 -119h-169z" />
    <glyph glyph-name="Cdotaccent" unicode="&#x10a;" horiz-adv-x="910" 
d="M460 -19q-204 0 -290.5 85t-90.5 282q-2 98 -3 214t-1 238t1 238.5t3 215.5q3 170 92.5 267t288.5 97q196 0 284 -84.5t93 -280.5q1 -35 1 -78t-1 -86.5t-2 -77.5h-258q1 41 2 92.5t1 103.5t-1 93q-1 53 -31.5 80t-87.5 27q-59 0 -90 -27t-33 -80q-4 -116 -5.5 -243
t-1.5 -257t1.5 -256.5t5.5 -242.5q2 -54 33 -81.5t90 -27.5q62 0 94 27.5t33 81.5q1 41 1.5 94t0 106t-1.5 93h258q2 -57 2 -122.5t-2 -123.5q-5 -197 -94.5 -282t-290.5 -85zM364 1680v176h176v-176h-176z" />
    <glyph glyph-name="cdotaccent" unicode="&#x10b;" horiz-adv-x="858" 
d="M543 751q1 22 1.5 57t0 68t-1.5 50q-2 54 -26 76t-78 22q-55 0 -79.5 -22t-26.5 -76q-2 -80 -3 -161t-1 -162t1 -161t3 -160q2 -58 27.5 -82t81.5 -24q52 0 75.5 24t25.5 82q2 28 2 72.5t-2 97.5h251q2 -18 3 -63t-1 -80q-8 -175 -90 -251t-264 -76q-187 0 -272 76
t-95 251q-2 46 -3 122.5t-1 163.5t1 165.5t3 126.5q12 179 96 255t268 76t267 -74.5t90 -246.5q2 -34 1 -80t-3 -66h-251zM350 1280v176h176v-176h-176z" />
    <glyph glyph-name="Ccaron" unicode="&#x10c;" horiz-adv-x="910" 
d="M460 -19q-204 0 -290.5 85t-90.5 282q-2 98 -3 214t-1 238t1 238.5t3 215.5q3 170 92.5 267t288.5 97q196 0 284 -84.5t93 -280.5q1 -35 1 -78t-1 -86.5t-2 -77.5h-258q1 41 2 92.5t1 103.5t-1 93q-1 53 -31.5 80t-87.5 27q-59 0 -90 -27t-33 -80q-4 -116 -5.5 -243
t-1.5 -257t1.5 -256.5t5.5 -242.5q2 -54 33 -81.5t90 -27.5q62 0 94 27.5t33 81.5q1 41 1.5 94t0 106t-1.5 93h258q2 -57 2 -122.5t-2 -123.5q-5 -197 -94.5 -282t-290.5 -85zM384 1682l-156 265h152l71 -137l71 137h151l-155 -265h-134z" />
    <glyph glyph-name="ccaron" unicode="&#x10d;" horiz-adv-x="858" 
d="M543 751q1 22 1.5 57t0 68t-1.5 50q-2 54 -26 76t-78 22q-55 0 -79.5 -22t-26.5 -76q-2 -80 -3 -161t-1 -162t1 -161t3 -160q2 -58 27.5 -82t81.5 -24q52 0 75.5 24t25.5 82q2 28 2 72.5t-2 97.5h251q2 -18 3 -63t-1 -80q-8 -175 -90 -251t-264 -76q-187 0 -272 76
t-95 251q-2 46 -3 122.5t-1 163.5t1 165.5t3 126.5q12 179 96 255t268 76t267 -74.5t90 -246.5q2 -34 1 -80t-3 -66h-251zM371 1282l-156 265h152l71 -137l71 137h151l-155 -265h-134z" />
    <glyph glyph-name="Dcaron" unicode="&#x10e;" horiz-adv-x="922" 
d="M86 0v1600h369q203 0 294 -87t94 -287q3 -152 4 -288.5t0 -273t-4 -288.5q-3 -201 -94 -288.5t-295 -87.5h-368zM345 228h109q65 0 97.5 30t33.5 87q3 115 4.5 228.5t1.5 227.5t-1.5 228t-4.5 227q-1 57 -33.5 86.5t-96.5 29.5h-110v-1144zM395 1682l-156 265h152
l71 -137l71 137h151l-155 -265h-134z" />
    <glyph glyph-name="dcaron" unicode="&#x10f;" horiz-adv-x="1119" 
d="M324 -18q-117 0 -179 72.5t-70 240.5q-2 56 -3 136t-1 167t1 168t3 140q8 168 72 240t180 72q89 0 132.5 -36.5t82.5 -105.5h38v524h258v-1600h-258v124h-38q-39 -68 -84.5 -105t-133.5 -37zM428 171q45 0 89 25t63 70v668q-19 45 -63 70t-89 25q-48 0 -70 -24.5
t-25 -77.5q-4 -99 -5.5 -217.5t0 -233.5t5.5 -203q3 -53 25 -77.5t70 -24.5zM899 1335l52 265h168l-61 -265h-159z" />
    <glyph glyph-name="Dcroat" unicode="&#x110;" horiz-adv-x="1014" 
d="M54 946h517v-127h-517v127zM178 0v1600h368q204 0 294.5 -87t94.5 -287q3 -152 4 -288.5t0 -273t-4 -288.5q-4 -201 -95 -288.5t-294 -87.5h-368zM436 228h110q64 0 97 30t34 87q2 115 3.5 228.5t1.5 227.5t-1.5 228t-3.5 227q-1 57 -34 86.5t-97 29.5h-110v-1144z" />
    <glyph glyph-name="dcroat" unicode="&#x111;" horiz-adv-x="927" 
d="M362 1469h546v-132h-546v132zM324 -18q-117 0 -179 72.5t-70 240.5q-2 56 -3 136t-1 167t1 168t3 140q8 168 72 240t180 72q89 0 132.5 -36.5t82.5 -105.5h38v524h258v-1600h-258v124h-38q-39 -68 -84.5 -105t-133.5 -37zM428 171q45 0 89 25t63 70v668q-19 45 -63 70
t-89 25q-48 0 -70 -24.5t-25 -77.5q-4 -99 -5.5 -217.5t0 -233.5t5.5 -203q3 -53 25 -77.5t70 -24.5z" />
    <glyph glyph-name="Emacron" unicode="&#x112;" horiz-adv-x="763" 
d="M86 0v1600h632v-228h-373v-446h353v-228h-353v-470h373v-228h-632zM76 1784h614v-120h-614v120z" />
    <glyph glyph-name="emacron" unicode="&#x113;" horiz-adv-x="860" 
d="M443 -18q-187 0 -272.5 76t-95.5 251q-2 46 -3 122.5t-1 163.5t1 165.5t3 126.5q12 179 96.5 255t268.5 76q183 0 265.5 -74.5t90.5 -246.5q1 -24 1.5 -80.5t0 -126.5t-3.5 -134h-464q0 -69 1.5 -137.5t2.5 -136.5q2 -58 27 -82t82 -24q52 0 74.5 24t25.5 82q2 28 2 72.5
t-2 98.5h251q2 -19 3 -64t-1 -80q-8 -175 -89.5 -251t-263.5 -76zM330 736h215v82.5t-0.5 68t-1.5 39.5q-3 52 -26.5 75t-76.5 23q-56 0 -80 -23t-26 -75q-1 -49 -2 -96zM127 1384h614v-120h-614v120z" />
    <glyph glyph-name="Ebreve" unicode="&#x114;" horiz-adv-x="763" 
d="M86 0v1600h632v-228h-373v-446h353v-228h-353v-470h373v-228h-632zM386 1671q-142 0 -207 63.5t-73 210.5h156q0 -76 28.5 -109t95.5 -33q66 0 94.5 33t29.5 109h155q-9 -147 -73.5 -210.5t-205.5 -63.5z" />
    <glyph glyph-name="ebreve" unicode="&#x115;" horiz-adv-x="860" 
d="M443 -18q-187 0 -272.5 76t-95.5 251q-2 46 -3 122.5t-1 163.5t1 165.5t3 126.5q12 179 96.5 255t268.5 76q183 0 265.5 -74.5t90.5 -246.5q1 -24 1.5 -80.5t0 -126.5t-3.5 -134h-464q0 -69 1.5 -137.5t2.5 -136.5q2 -58 27 -82t82 -24q52 0 74.5 24t25.5 82q2 28 2 72.5
t-2 98.5h251q2 -19 3 -64t-1 -80q-8 -175 -89.5 -251t-263.5 -76zM330 736h215v82.5t-0.5 68t-1.5 39.5q-3 52 -26.5 75t-76.5 23q-56 0 -80 -23t-26 -75q-1 -49 -2 -96zM436 1271q-142 0 -207 63.5t-73 210.5h156q0 -76 28.5 -109t95.5 -33q66 0 94.5 33t29.5 109h155
q-9 -147 -73.5 -210.5t-205.5 -63.5z" />
    <glyph glyph-name="Edotaccent" unicode="&#x116;" horiz-adv-x="763" 
d="M86 0v1600h632v-228h-373v-446h353v-228h-353v-470h373v-228h-632zM296 1680v176h176v-176h-176z" />
    <glyph glyph-name="edotaccent" unicode="&#x117;" horiz-adv-x="860" 
d="M443 -18q-187 0 -272.5 76t-95.5 251q-2 46 -3 122.5t-1 163.5t1 165.5t3 126.5q12 179 96.5 255t268.5 76q183 0 265.5 -74.5t90.5 -246.5q1 -24 1.5 -80.5t0 -126.5t-3.5 -134h-464q0 -69 1.5 -137.5t2.5 -136.5q2 -58 27 -82t82 -24q52 0 74.5 24t25.5 82q2 28 2 72.5
t-2 98.5h251q2 -19 3 -64t-1 -80q-8 -175 -89.5 -251t-263.5 -76zM330 736h215v82.5t-0.5 68t-1.5 39.5q-3 52 -26.5 75t-76.5 23q-56 0 -80 -23t-26 -75q-1 -49 -2 -96zM347 1280v176h176v-176h-176z" />
    <glyph glyph-name="Eogonek" unicode="&#x118;" horiz-adv-x="763" 
d="M86 0v1600h632v-228h-373v-446h353v-228h-353v-470h373v-228h-632zM722 -308h-63q-136 0 -193 53t-40 172l14 91h134l-14 -91q-7 -54 16.5 -78t82.5 -24h63v-123z" />
    <glyph glyph-name="eogonek" unicode="&#x119;" horiz-adv-x="860" 
d="M443 -18q-187 0 -272.5 76t-95.5 251q-2 46 -3 122.5t-1 163.5t1 165.5t3 126.5q12 179 96.5 255t268.5 76q183 0 265.5 -74.5t90.5 -246.5q1 -24 1.5 -80.5t0 -126.5t-3.5 -134h-464q0 -69 1.5 -137.5t2.5 -136.5q2 -58 27 -82t82 -24q52 0 74.5 24t25.5 82q2 28 2 72.5
t-2 98.5h251q2 -19 3 -64t-1 -80q-8 -175 -89.5 -251t-263.5 -76zM330 736h215v82.5t-0.5 68t-1.5 39.5q-3 52 -26.5 75t-76.5 23q-56 0 -80 -23t-26 -75q-1 -49 -2 -96zM789 -296h-63q-136 0 -193 53t-40 172l14 91h134l-14 -91q-7 -54 16.5 -78t82.5 -24h63v-123z" />
    <glyph glyph-name="Ecaron" unicode="&#x11a;" horiz-adv-x="763" 
d="M86 0v1600h632v-228h-373v-446h353v-228h-353v-470h373v-228h-632zM317 1682l-156 265h152l71 -137l71 137h151l-155 -265h-134z" />
    <glyph glyph-name="ecaron" unicode="&#x11b;" horiz-adv-x="860" 
d="M443 -18q-187 0 -272.5 76t-95.5 251q-2 46 -3 122.5t-1 163.5t1 165.5t3 126.5q12 179 96.5 255t268.5 76q183 0 265.5 -74.5t90.5 -246.5q1 -24 1.5 -80.5t0 -126.5t-3.5 -134h-464q0 -69 1.5 -137.5t2.5 -136.5q2 -58 27 -82t82 -24q52 0 74.5 24t25.5 82q2 28 2 72.5
t-2 98.5h251q2 -19 3 -64t-1 -80q-8 -175 -89.5 -251t-263.5 -76zM330 736h215v82.5t-0.5 68t-1.5 39.5q-3 52 -26.5 75t-76.5 23q-56 0 -80 -23t-26 -75q-1 -49 -2 -96zM368 1282l-156 265h152l71 -137l71 137h151l-155 -265h-134z" />
    <glyph glyph-name="Gcircumflex" unicode="&#x11c;" horiz-adv-x="914" 
d="M463 -18q-136 0 -218.5 37t-120.5 118t-43 212q-3 97 -4.5 212t-1.5 234.5t1.5 233.5t4.5 209q5 138 44.5 222t121.5 121t216 37q190 0 277.5 -84.5t98.5 -280.5q3 -54 3 -120.5t-3 -121.5h-258q3 63 3 145t-3 144q-3 53 -33 80t-85 27q-60 0 -90.5 -27t-33.5 -80
q-5 -115 -7.5 -242t-2.5 -257.5t2.5 -257t7.5 -241.5q3 -54 33.5 -81.5t90.5 -27.5t94 27.5t37 81.5q2 31 2.5 72.5t0 83.5t-2.5 72h-115v225h367q4 -87 3 -194.5t-5 -211.5q-9 -197 -97.5 -282t-283.5 -85zM222 1682l156 265h151l155 -265h-168l-62 119l-63 -119h-169z" />
    <glyph glyph-name="gcircumflex" unicode="&#x11d;" horiz-adv-x="934" 
d="M429 -384q-168 0 -253.5 46t-102.5 134q-3 12 -4.5 30.5t0.5 36.5q6 48 39.5 84.5t91.5 43.5v38q-52 9 -83 38t-38 75q-1 13 -1 27t1 30q5 43 43.5 70t97.5 35v38q-79 36 -117 107t-46 187q-1 40 -2 71.5t-1 59.5t1 57t2 63q7 115 44 188t116.5 108t212.5 35
q125 0 198.5 -31.5t114.5 -100.5h38q7 60 43 87t108 27v-196h-32q-48 0 -75 -24t-27 -85v-71v-46.5t0.5 -42.5t0 -45t-2.5 -54q-8 -120 -45.5 -193.5t-115.5 -106t-207 -32.5q-91 0 -125 -14t-34 -47v-7q0 -21 9 -33.5t41 -18.5t104 -7q196 -3 287 -62t108 -175
q4 -19 4 -39.5t-4 -46.5q-8 -82 -53.5 -134.5t-129 -78t-206.5 -25.5zM435 -206q53 0 89.5 9t57.5 26.5t28 43.5q5 16 4 29.5t-5 27.5q-8 27 -29.5 43t-57.5 23.5t-87 8.5q-78 1 -115.5 -17t-47.5 -58q-4 -14 -3.5 -29t3.5 -28q6 -27 25 -44.5t53 -26t85 -8.5zM427 498
q66 0 89 27t26 75q2 29 3.5 71t1.5 88t-1.5 88.5t-3.5 73.5q-3 53 -27.5 78t-87.5 25t-89 -25.5t-28 -80.5q-2 -50 -3 -93.5t-1 -82.5t1 -73t3 -63q4 -47 25.5 -77.5t91.5 -30.5zM198 1282l156 265h151l155 -265h-168l-62 119l-63 -119h-169z" />
    <glyph glyph-name="Gbreve" unicode="&#x11e;" horiz-adv-x="914" 
d="M463 -18q-136 0 -218.5 37t-120.5 118t-43 212q-3 97 -4.5 212t-1.5 234.5t1.5 233.5t4.5 209q5 138 44.5 222t121.5 121t216 37q190 0 277.5 -84.5t98.5 -280.5q3 -54 3 -120.5t-3 -121.5h-258q3 63 3 145t-3 144q-3 53 -33 80t-85 27q-60 0 -90.5 -27t-33.5 -80
q-5 -115 -7.5 -242t-2.5 -257.5t2.5 -257t7.5 -241.5q3 -54 33.5 -81.5t90.5 -27.5t94 27.5t37 81.5q2 31 2.5 72.5t0 83.5t-2.5 72h-115v225h367q4 -87 3 -194.5t-5 -211.5q-9 -197 -97.5 -282t-283.5 -85zM456 1671q-142 0 -207 63.5t-73 210.5h156q0 -76 28.5 -109
t95.5 -33q66 0 94.5 33t29.5 109h155q-9 -147 -73.5 -210.5t-205.5 -63.5z" />
    <glyph glyph-name="gbreve" unicode="&#x11f;" horiz-adv-x="934" 
d="M429 -384q-168 0 -253.5 46t-102.5 134q-3 12 -4.5 30.5t0.5 36.5q6 48 39.5 84.5t91.5 43.5v38q-52 9 -83 38t-38 75q-1 13 -1 27t1 30q5 43 43.5 70t97.5 35v38q-79 36 -117 107t-46 187q-1 40 -2 71.5t-1 59.5t1 57t2 63q7 115 44 188t116.5 108t212.5 35
q125 0 198.5 -31.5t114.5 -100.5h38q7 60 43 87t108 27v-196h-32q-48 0 -75 -24t-27 -85v-71v-46.5t0.5 -42.5t0 -45t-2.5 -54q-8 -120 -45.5 -193.5t-115.5 -106t-207 -32.5q-91 0 -125 -14t-34 -47v-7q0 -21 9 -33.5t41 -18.5t104 -7q196 -3 287 -62t108 -175
q4 -19 4 -39.5t-4 -46.5q-8 -82 -53.5 -134.5t-129 -78t-206.5 -25.5zM435 -206q53 0 89.5 9t57.5 26.5t28 43.5q5 16 4 29.5t-5 27.5q-8 27 -29.5 43t-57.5 23.5t-87 8.5q-78 1 -115.5 -17t-47.5 -58q-4 -14 -3.5 -29t3.5 -28q6 -27 25 -44.5t53 -26t85 -8.5zM427 498
q66 0 89 27t26 75q2 29 3.5 71t1.5 88t-1.5 88.5t-3.5 73.5q-3 53 -27.5 78t-87.5 25t-89 -25.5t-28 -80.5q-2 -50 -3 -93.5t-1 -82.5t1 -73t3 -63q4 -47 25.5 -77.5t91.5 -30.5zM431 1271q-142 0 -207 63.5t-73 210.5h156q0 -76 28.5 -109t95.5 -33q66 0 94.5 33t29.5 109
h155q-9 -147 -73.5 -210.5t-205.5 -63.5z" />
    <glyph glyph-name="Gdotaccent" unicode="&#x120;" horiz-adv-x="914" 
d="M463 -18q-136 0 -218.5 37t-120.5 118t-43 212q-3 97 -4.5 212t-1.5 234.5t1.5 233.5t4.5 209q5 138 44.5 222t121.5 121t216 37q190 0 277.5 -84.5t98.5 -280.5q3 -54 3 -120.5t-3 -121.5h-258q3 63 3 145t-3 144q-3 53 -33 80t-85 27q-60 0 -90.5 -27t-33.5 -80
q-5 -115 -7.5 -242t-2.5 -257.5t2.5 -257t7.5 -241.5q3 -54 33.5 -81.5t90.5 -27.5t94 27.5t37 81.5q2 31 2.5 72.5t0 83.5t-2.5 72h-115v225h367q4 -87 3 -194.5t-5 -211.5q-9 -197 -97.5 -282t-283.5 -85zM366 1680v176h176v-176h-176z" />
    <glyph glyph-name="gdotaccent" unicode="&#x121;" horiz-adv-x="934" 
d="M429 -384q-168 0 -253.5 46t-102.5 134q-3 12 -4.5 30.5t0.5 36.5q6 48 39.5 84.5t91.5 43.5v38q-52 9 -83 38t-38 75q-1 13 -1 27t1 30q5 43 43.5 70t97.5 35v38q-79 36 -117 107t-46 187q-1 40 -2 71.5t-1 59.5t1 57t2 63q7 115 44 188t116.5 108t212.5 35
q125 0 198.5 -31.5t114.5 -100.5h38q7 60 43 87t108 27v-196h-32q-48 0 -75 -24t-27 -85v-71v-46.5t0.5 -42.5t0 -45t-2.5 -54q-8 -120 -45.5 -193.5t-115.5 -106t-207 -32.5q-91 0 -125 -14t-34 -47v-7q0 -21 9 -33.5t41 -18.5t104 -7q196 -3 287 -62t108 -175
q4 -19 4 -39.5t-4 -46.5q-8 -82 -53.5 -134.5t-129 -78t-206.5 -25.5zM435 -206q53 0 89.5 9t57.5 26.5t28 43.5q5 16 4 29.5t-5 27.5q-8 27 -29.5 43t-57.5 23.5t-87 8.5q-78 1 -115.5 -17t-47.5 -58q-4 -14 -3.5 -29t3.5 -28q6 -27 25 -44.5t53 -26t85 -8.5zM427 498
q66 0 89 27t26 75q2 29 3.5 71t1.5 88t-1.5 88.5t-3.5 73.5q-3 53 -27.5 78t-87.5 25t-89 -25.5t-28 -80.5q-2 -50 -3 -93.5t-1 -82.5t1 -73t3 -63q4 -47 25.5 -77.5t91.5 -30.5zM342 1280v176h176v-176h-176z" />
    <glyph glyph-name="uni0122" unicode="&#x122;" horiz-adv-x="914" 
d="M463 -18q-136 0 -218.5 37t-120.5 118t-43 212q-3 97 -4.5 212t-1.5 234.5t1.5 233.5t4.5 209q5 138 44.5 222t121.5 121t216 37q190 0 277.5 -84.5t98.5 -280.5q3 -54 3 -120.5t-3 -121.5h-258q3 63 3 145t-3 144q-3 53 -33 80t-85 27q-60 0 -90.5 -27t-33.5 -80
q-5 -115 -7.5 -242t-2.5 -257.5t2.5 -257t7.5 -241.5q3 -54 33.5 -81.5t90.5 -27.5t94 27.5t37 81.5q2 31 2.5 72.5t0 83.5t-2.5 72h-115v225h367q4 -87 3 -194.5t-5 -211.5q-9 -197 -97.5 -282t-283.5 -85zM371 -431l64 147h-95v204h246v-180l-88 -171h-127z" />
    <glyph glyph-name="uni0123" unicode="&#x123;" horiz-adv-x="934" 
d="M429 -384q-168 0 -253.5 46t-102.5 134q-3 12 -4.5 30.5t0.5 36.5q6 48 39.5 84.5t91.5 43.5v38q-52 9 -83 38t-38 75q-1 13 -1 27t1 30q5 43 43.5 70t97.5 35v38q-79 36 -117 107t-46 187q-1 40 -2 71.5t-1 59.5t1 57t2 63q7 115 44 188t116.5 108t212.5 35
q125 0 198.5 -31.5t114.5 -100.5h38q7 60 43 87t108 27v-196h-32q-48 0 -75 -24t-27 -85v-71v-46.5t0.5 -42.5t0 -45t-2.5 -54q-8 -120 -45.5 -193.5t-115.5 -106t-207 -32.5q-91 0 -125 -14t-34 -47v-7q0 -21 9 -33.5t41 -18.5t104 -7q196 -3 287 -62t108 -175
q4 -19 4 -39.5t-4 -46.5q-8 -82 -53.5 -134.5t-129 -78t-206.5 -25.5zM435 -206q53 0 89.5 9t57.5 26.5t28 43.5q5 16 4 29.5t-5 27.5q-8 27 -29.5 43t-57.5 23.5t-87 8.5q-78 1 -115.5 -17t-47.5 -58q-4 -14 -3.5 -29t3.5 -28q6 -27 25 -44.5t53 -26t85 -8.5zM427 498
q66 0 89 27t26 75q2 29 3.5 71t1.5 88t-1.5 88.5t-3.5 73.5q-3 53 -27.5 78t-87.5 25t-89 -25.5t-28 -80.5q-2 -50 -3 -93.5t-1 -82.5t1 -73t3 -63q4 -47 25.5 -77.5t91.5 -30.5zM531 1638l-64 -146h94v-204h-246v180l89 170h127z" />
    <glyph glyph-name="Hcircumflex" unicode="&#x124;" horiz-adv-x="910" 
d="M86 0v1600h259v-674h221v674h258v-1600h-258v698h-221v-698h-259zM223 1682l156 265h151l155 -265h-168l-62 119l-63 -119h-169z" />
    <glyph glyph-name="hcircumflex" unicode="&#x125;" horiz-adv-x="939" 
d="M89 0v1600h258v-524h46q39 69 83 105.5t132 36.5q117 0 182 -72t65 -240v-906h-258v927q0 53 -24.5 77.5t-73.5 24.5q-44 0 -89 -25t-63 -70v-934h-258zM257 1682l156 265h151l155 -265h-168l-62 119l-63 -119h-169z" />
    <glyph glyph-name="Hbar" unicode="&#x126;" horiz-adv-x="1054" 
d="M47 1267h960v-127h-960v127zM158 0v1600h258v-674h222v674h258v-1600h-258v698h-222v-698h-258z" />
    <glyph glyph-name="hbar" unicode="&#x127;" horiz-adv-x="939" 
d="M89 0v1600h258v-524h46q39 69 83 105.5t132 36.5q117 0 182 -72t65 -240v-906h-258v927q0 53 -24.5 77.5t-73.5 24.5q-44 0 -89 -25t-63 -70v-934h-258zM31 1452h505v-132h-505v132z" />
    <glyph glyph-name="Itilde" unicode="&#x128;" horiz-adv-x="431" 
d="M86 0v1600h259v-1600h-259zM356 1879h100q-5 -103 -40.5 -151.5t-102.5 -48.5q-41 0 -65 13.5t-40.5 31t-34 31t-44.5 13.5q-30 0 -39.5 -20.5t-12.5 -57.5h-100q7 112 45 161t105 49q41 0 66.5 -13t42.5 -30.5t34 -31t42 -13.5t33.5 17t10.5 50z" />
    <glyph glyph-name="itilde" unicode="&#x129;" horiz-adv-x="436" 
d="M89 0v1200h258v-1200h-258zM358 1479h100q-5 -103 -40.5 -151.5t-102.5 -48.5q-41 0 -65 13.5t-40.5 31t-34 31t-44.5 13.5q-30 0 -39.5 -20.5t-12.5 -57.5h-100q7 112 45 161t105 49q41 0 66.5 -13t42.5 -30.5t34 -31t42 -13.5t33.5 17t10.5 50z" />
    <glyph glyph-name="Imacron" unicode="&#x12a;" horiz-adv-x="431" 
d="M86 0v1600h259v-1600h-259zM-94 1784h614v-120h-614v120z" />
    <glyph glyph-name="imacron" unicode="&#x12b;" horiz-adv-x="436" 
d="M89 0v1200h258v-1200h-258zM-91 1384h614v-120h-614v120z" />
    <glyph glyph-name="Ibreve" unicode="&#x12c;" horiz-adv-x="431" 
d="M86 0v1600h259v-1600h-259zM216 1671q-142 0 -207 63.5t-73 210.5h156q0 -76 28.5 -109t95.5 -33q66 0 94.5 33t29.5 109h155q-9 -147 -73.5 -210.5t-205.5 -63.5z" />
    <glyph glyph-name="ibreve" unicode="&#x12d;" horiz-adv-x="436" 
d="M89 0v1200h258v-1200h-258zM218 1271q-142 0 -207 63.5t-73 210.5h156q0 -76 28.5 -109t95.5 -33q66 0 94.5 33t29.5 109h155q-9 -147 -73.5 -210.5t-205.5 -63.5z" />
    <glyph glyph-name="Iogonek" unicode="&#x12e;" horiz-adv-x="431" 
d="M86 0v1600h259v-1600h-259zM370 -316h-63q-136 0 -193 53t-40 172l14 91h134l-14 -91q-7 -54 16.5 -78t82.5 -24h63v-123z" />
    <glyph glyph-name="iogonek" unicode="&#x12f;" horiz-adv-x="431" 
d="M78 1391v209h277v-209h-277zM89 0v1200h258v-1200h-258zM368 -316h-62q-136 0 -193 53t-40 172l13 91h134l-14 -91q-7 -54 17 -78t83 -24h62v-123z" />
    <glyph glyph-name="Idotaccent" unicode="&#x130;" horiz-adv-x="431" 
d="M86 0v1600h259v-1600h-259zM127 1680v176h176v-176h-176z" />
    <glyph glyph-name="dotlessi" unicode="&#x131;" horiz-adv-x="436" 
d="M89 0v1200h258v-1200h-258z" />
    <glyph glyph-name="Jcircumflex" unicode="&#x134;" horiz-adv-x="843" 
d="M403 -18q-133 0 -211 37t-113 118t-38 212q-1 57 -1 122.5t1 123.5h243q-1 -41 -1.5 -94t0 -105.5t1.5 -93.5q2 -54 30.5 -81.5t88.5 -27.5q61 0 87.5 27.5t26.5 81.5v1298h258v-1251q0 -197 -83.5 -282t-288.5 -85zM225 1682l156 265h151l155 -265h-168l-62 119
l-63 -119h-169z" />
    <glyph glyph-name="jcircumflex" unicode="&#x135;" horiz-adv-x="439" 
d="M-21 -422q-32 0 -69.5 4t-70.5 9v193q26 -2 68 -3.5t71 -1.5q55 0 84 26.5t29 80.5v1314h258v-1294q0 -175 -91 -251.5t-279 -76.5zM-12 1282l156 265h151l155 -265h-168l-62 119l-63 -119h-169z" />
    <glyph glyph-name="uni0136" unicode="&#x136;" horiz-adv-x="917" 
d="M86 0v1600h275l-3 -386l-45 -370h49l103 379l136 377h282l-259 -672l275 -928h-263l-183 639l-103 -234v-405h-264zM408 -431l64 147h-95v204h246v-180l-88 -171h-127z" />
    <glyph glyph-name="uni0137" unicode="&#x137;" horiz-adv-x="845" 
d="M89 0v1600h241v-336l-30 -541h41l87 246l107 231h268l-235 -460l276 -740h-264l-174 480l-71 -118v-362h-246zM364 -431l64 147h-95v204h246v-180l-88 -171h-127z" />
    <glyph glyph-name="kgreenlandic" unicode="&#x138;" horiz-adv-x="904" 
d="M89 0v1200h241v-143l-30 -368h41l90 247l133 264h267l-262 -494l275 -706h-264l-171 443l-74 -127v-316h-246z" />
    <glyph glyph-name="Lacute" unicode="&#x139;" horiz-adv-x="748" 
d="M86 0v1600h259v-1372h375v-228h-634zM335 1680l180 265h169l-189 -265h-160z" />
    <glyph glyph-name="lacute" unicode="&#x13a;" horiz-adv-x="436" 
d="M89 0v1600h258v-1600h-258zM146 1680l180 265h169l-189 -265h-160z" />
    <glyph glyph-name="uni013B" unicode="&#x13b;" horiz-adv-x="748" 
d="M86 0v1600h259v-1372h375v-228h-634zM320 -431l64 147h-95v204h246v-180l-88 -171h-127z" />
    <glyph glyph-name="uni013C" unicode="&#x13c;" horiz-adv-x="436" 
d="M89 0v1600h258v-1600h-258zM134 -431l64 147h-95v204h246v-180l-88 -171h-127z" />
    <glyph glyph-name="Lcaron" unicode="&#x13d;" horiz-adv-x="748" 
d="M86 0v1600h259v-1372h375v-228h-634zM488 1333l52 265h168l-61 -265h-159z" />
    <glyph glyph-name="lcaron" unicode="&#x13e;" horiz-adv-x="610" 
d="M89 0v1600h258v-1600h-258zM391 1335l52 265h168l-61 -265h-159z" />
    <glyph glyph-name="Ldot" unicode="&#x13f;" horiz-adv-x="748" 
d="M86 0v1600h259v-1372h375v-228h-634zM524 741v192h193v-192h-193z" />
    <glyph glyph-name="ldot" unicode="&#x140;" horiz-adv-x="677" 
d="M89 0v1600h258v-1600h-258zM444 734v192h193v-192h-193z" />
    <glyph glyph-name="Lslash" unicode="&#x141;" horiz-adv-x="879" 
d="M218 0v455l-32 -89h-180l212 383v851h258v-495l38 95h196l-234 -416v-556h375v-228h-633z" />
    <glyph glyph-name="lslash" unicode="&#x142;" horiz-adv-x="716" 
d="M222 0v463l-36 -97h-180l216 390v844h259v-486l33 86h196l-229 -409v-791h-259z" />
    <glyph glyph-name="Nacute" unicode="&#x143;" horiz-adv-x="1016" 
d="M86 0v1600h382l113 -509l116 -863h50l-47 716l-21 656h250v-1600h-400l-115 536l-90 838h-54l44 -764l22 -610h-250zM438 1680l180 265h169l-189 -265h-160z" />
    <glyph glyph-name="nacute" unicode="&#x144;" horiz-adv-x="939" 
d="M89 0v1200h258v-124h46q39 68 83.5 105t131.5 37q117 0 182 -72t65 -240v-906h-258v927q0 53 -24.5 77.5t-73.5 24.5q-43 0 -88.5 -25.5t-63.5 -69.5v-934h-258zM401 1280l180 265h169l-189 -265h-160z" />
    <glyph glyph-name="uni0145" unicode="&#x145;" horiz-adv-x="1016" 
d="M86 0v1600h382l113 -509l116 -863h50l-47 716l-21 656h250v-1600h-400l-115 536l-90 838h-54l44 -764l22 -610h-250zM424 -431l64 147h-95v204h246v-180l-88 -171h-127z" />
    <glyph glyph-name="uni0146" unicode="&#x146;" horiz-adv-x="939" 
d="M89 0v1200h258v-124h46q39 68 83.5 105t131.5 37q117 0 182 -72t65 -240v-906h-258v927q0 53 -24.5 77.5t-73.5 24.5q-43 0 -88.5 -25.5t-63.5 -69.5v-934h-258zM389 -431l64 147h-95v204h246v-180l-88 -171h-127z" />
    <glyph glyph-name="Ncaron" unicode="&#x147;" horiz-adv-x="1016" 
d="M86 0v1600h382l113 -509l116 -863h50l-47 716l-21 656h250v-1600h-400l-115 536l-90 838h-54l44 -764l22 -610h-250zM442 1682l-156 265h152l71 -137l71 137h151l-155 -265h-134z" />
    <glyph glyph-name="ncaron" unicode="&#x148;" horiz-adv-x="939" 
d="M89 0v1200h258v-124h46q39 68 83.5 105t131.5 37q117 0 182 -72t65 -240v-906h-258v927q0 53 -24.5 77.5t-73.5 24.5q-43 0 -88.5 -25.5t-63.5 -69.5v-934h-258zM405 1282l-156 265h152l71 -137l71 137h151l-155 -265h-134z" />
    <glyph glyph-name="Eng" unicode="&#x14a;" horiz-adv-x="1016" 
d="M541 -417q-31 0 -67.5 3.5t-69.5 9.5v186q26 -1 67 -2.5t70 -1.5q74 0 120 22.5t46 78.5v270h222v-248q0 -170 -94 -244t-294 -74zM86 0v1600h382l113 -509l116 -863h50l-47 716l-21 656h250v-1600h-400l-115 536l-90 838h-54l44 -764l22 -610h-250z" />
    <glyph glyph-name="eng" unicode="&#x14b;" horiz-adv-x="937" 
d="M449 -419q-32 0 -69 4t-70 10v189q26 -2 68 -3.5t71 -1.5q78 0 112 24t34 83v1041q0 53 -23.5 77.5t-72.5 24.5q-43 0 -88.5 -25.5t-63.5 -69.5v-934h-258v1200h258v-124h46q39 68 83.5 105t131.5 37q117 0 181 -72t64 -240v-997q0 -175 -98 -251.5t-306 -76.5z" />
    <glyph glyph-name="Omacron" unicode="&#x14c;" horiz-adv-x="924" 
d="M462 -18q-200 0 -289 84.5t-93 281.5q-2 109 -3.5 223t-1.5 229.5t1.5 229.5t3.5 224q4 196 93 280t289 84q201 0 288 -84t93 -280q3 -111 5 -225t2 -229.5t-2 -229t-5 -222.5q-6 -197 -93 -281.5t-288 -84.5zM462 193q62 0 92 27t31 81q4 113 6 240.5t2 260t-2 259.5
t-6 240q-1 53 -32 79.5t-91 26.5t-91 -26.5t-33 -79.5q-4 -113 -6.5 -240t-2.5 -259.5t2.5 -260t6.5 -240.5q2 -54 33 -81t91 -27zM154 1784h614v-120h-614v120z" />
    <glyph glyph-name="omacron" unicode="&#x14d;" horiz-adv-x="897" 
d="M450 -18q-134 0 -213.5 36.5t-116.5 117t-44 212.5q-2 46 -3.5 111.5t-1.5 138t1 140t4 116.5q7 130 43.5 210.5t116 117t214.5 36.5t213.5 -37t115 -117.5t43.5 -209.5q2 -46 3 -112t1 -138.5t-1 -139.5t-3 -116q-7 -130 -43.5 -211t-115 -118t-213.5 -37zM450 176
q61 0 86.5 27t27.5 81q2 79 3.5 158t1.5 159t-1.5 159t-3.5 157q-2 54 -27.5 80.5t-86.5 26.5q-60 0 -87 -26.5t-29 -80.5q-2 -78 -3.5 -157.5t-1.5 -159t1.5 -159t3.5 -157.5q2 -54 29 -81t87 -27zM140 1384h614v-120h-614v120z" />
    <glyph glyph-name="Obreve" unicode="&#x14e;" horiz-adv-x="924" 
d="M462 -18q-200 0 -289 84.5t-93 281.5q-2 109 -3.5 223t-1.5 229.5t1.5 229.5t3.5 224q4 196 93 280t289 84q201 0 288 -84t93 -280q3 -111 5 -225t2 -229.5t-2 -229t-5 -222.5q-6 -197 -93 -281.5t-288 -84.5zM462 193q62 0 92 27t31 81q4 113 6 240.5t2 260t-2 259.5
t-6 240q-1 53 -32 79.5t-91 26.5t-91 -26.5t-33 -79.5q-4 -113 -6.5 -240t-2.5 -259.5t2.5 -260t6.5 -240.5q2 -54 33 -81t91 -27zM464 1671q-142 0 -207 63.5t-73 210.5h156q0 -76 28.5 -109t95.5 -33q66 0 94.5 33t29.5 109h155q-9 -147 -73.5 -210.5t-205.5 -63.5z" />
    <glyph glyph-name="obreve" unicode="&#x14f;" horiz-adv-x="897" 
d="M450 -18q-134 0 -213.5 36.5t-116.5 117t-44 212.5q-2 46 -3.5 111.5t-1.5 138t1 140t4 116.5q7 130 43.5 210.5t116 117t214.5 36.5t213.5 -37t115 -117.5t43.5 -209.5q2 -46 3 -112t1 -138.5t-1 -139.5t-3 -116q-7 -130 -43.5 -211t-115 -118t-213.5 -37zM450 176
q61 0 86.5 27t27.5 81q2 79 3.5 158t1.5 159t-1.5 159t-3.5 157q-2 54 -27.5 80.5t-86.5 26.5q-60 0 -87 -26.5t-29 -80.5q-2 -78 -3.5 -157.5t-1.5 -159t1.5 -159t3.5 -157.5q2 -54 29 -81t87 -27zM450 1271q-142 0 -207 63.5t-73 210.5h156q0 -76 28.5 -109t95.5 -33
q66 0 94.5 33t29.5 109h155q-9 -147 -73.5 -210.5t-205.5 -63.5z" />
    <glyph glyph-name="Ohungarumlaut" unicode="&#x150;" horiz-adv-x="924" 
d="M462 -18q-200 0 -289 84.5t-93 281.5q-2 109 -3.5 223t-1.5 229.5t1.5 229.5t3.5 224q4 196 93 280t289 84q201 0 288 -84t93 -280q3 -111 5 -225t2 -229.5t-2 -229t-5 -222.5q-6 -197 -93 -281.5t-288 -84.5zM462 193q62 0 92 27t31 81q4 113 6 240.5t2 260t-2 259.5
t-6 240q-1 53 -32 79.5t-91 26.5t-91 -26.5t-33 -79.5q-4 -113 -6.5 -240t-2.5 -259.5t2.5 -260t6.5 -240.5q2 -54 33 -81t91 -27zM239 1682l212 265h178l-212 -265h-178zM510 1682l212 265h178l-212 -265h-178z" />
    <glyph glyph-name="ohungarumlaut" unicode="&#x151;" horiz-adv-x="897" 
d="M450 -18q-134 0 -213.5 36.5t-116.5 117t-44 212.5q-2 46 -3.5 111.5t-1.5 138t1 140t4 116.5q7 130 43.5 210.5t116 117t214.5 36.5t213.5 -37t115 -117.5t43.5 -209.5q2 -46 3 -112t1 -138.5t-1 -139.5t-3 -116q-7 -130 -43.5 -211t-115 -118t-213.5 -37zM450 176
q61 0 86.5 27t27.5 81q2 79 3.5 158t1.5 159t-1.5 159t-3.5 157q-2 54 -27.5 80.5t-86.5 26.5q-60 0 -87 -26.5t-29 -80.5q-2 -78 -3.5 -157.5t-1.5 -159t1.5 -159t3.5 -157.5q2 -54 29 -81t87 -27zM225 1282l212 265h178l-212 -265h-178zM496 1282l212 265h178l-212 -265
h-178z" />
    <glyph glyph-name="OE" unicode="&#x152;" horiz-adv-x="1270" 
d="M462 -18q-200 0 -289 84.5t-93 281.5q-2 109 -3.5 223t-1.5 229.5t1.5 229.5t3.5 224q4 196 93 280t289 84q108 0 174 -24l2 6h588v-228h-374v-446h354v-228h-354v-470h374v-228h-588l-2 6q-66 -24 -174 -24zM462 193q62 0 92 27t31 81q2 60 3.5 128.5t2.5 142.5
t1.5 150.5t0 153t-1.5 151t-2.5 144t-3.5 130.5q-1 53 -32 79.5t-91 26.5t-91 -26.5t-33 -79.5q-4 -113 -6.5 -240t-2.5 -259.5t2.5 -260t6.5 -240.5q2 -54 33 -81t91 -27z" />
    <glyph glyph-name="oe" unicode="&#x153;" horiz-adv-x="1358" 
d="M450 -18q-134 0 -213.5 36.5t-116.5 117t-44 212.5q-2 46 -3.5 111.5t-1.5 138t1 140t4 116.5q7 130 43.5 210.5t116 117t214.5 36.5t213.5 -37t115 -117.5t43.5 -209.5q2 -46 3 -112t1 -138.5t-1 -139.5t-3 -116q-7 -130 -43.5 -211t-115 -118t-213.5 -37zM450 176
q61 0 86.5 27t27.5 81q2 79 3.5 158t1.5 159t-1.5 159t-3.5 157q-2 54 -27.5 80.5t-86.5 26.5q-60 0 -87 -26.5t-29 -80.5q-2 -78 -3.5 -157.5t-1.5 -159t1.5 -159t3.5 -157.5q2 -54 29 -81t87 -27zM941 -18q-187 0 -272.5 76t-95.5 251q-2 46 -3 122.5t-1 163.5t1 165.5
t3 126.5q12 179 96.5 255t268.5 76q183 0 265.5 -74.5t90.5 -246.5q1 -24 1.5 -80.5t0 -126.5t-3.5 -134h-464q0 -69 1.5 -137.5t2.5 -136.5q2 -58 27 -82t82 -24q52 0 74.5 24t25.5 82q2 28 2 72.5t-2 98.5h251q2 -19 3 -64t-1 -80q-8 -175 -89.5 -251t-263.5 -76zM828 736
h215v82.5t-0.5 68t-1.5 39.5q-3 52 -26.5 75t-76.5 23q-56 0 -80 -23t-26 -75q-1 -49 -2 -96z" />
    <glyph glyph-name="Racute" unicode="&#x154;" horiz-adv-x="889" 
d="M86 0v1600h351q202 0 291.5 -83t96.5 -274q2 -64 3 -115.5t0 -102t-3 -110.5q-4 -122 -41 -198.5t-116 -115.5l181 -601h-274l-150 558h-80v-558h-259zM345 786h91q65 0 96.5 29.5t34.5 86.5q3 56 4 116.5t0 121t-4 116.5q-3 57 -34.5 86.5t-95.5 29.5h-92v-586z
M366 1680l180 265h169l-189 -265h-160z" />
    <glyph glyph-name="racute" unicode="&#x155;" horiz-adv-x="650" 
d="M89 0v1200h258v-141h46q11 83 52.5 115.5t106.5 32.5q24 0 46.5 -2t34.5 -3v-198h-77q-108 0 -152.5 -34t-56.5 -96v-874h-258zM284 1280l180 265h169l-189 -265h-160z" />
    <glyph glyph-name="uni0156" unicode="&#x156;" horiz-adv-x="889" 
d="M86 0v1600h351q202 0 291.5 -83t96.5 -274q2 -64 3 -115.5t0 -102t-3 -110.5q-4 -122 -41 -198.5t-116 -115.5l181 -601h-274l-150 558h-80v-558h-259zM345 786h91q65 0 96.5 29.5t34.5 86.5q3 56 4 116.5t0 121t-4 116.5q-3 57 -34.5 86.5t-95.5 29.5h-92v-586z
M383 -431l64 147h-95v204h246v-180l-88 -171h-127z" />
    <glyph glyph-name="uni0157" unicode="&#x157;" horiz-adv-x="650" 
d="M89 0v1200h258v-141h46q11 83 52.5 115.5t106.5 32.5q24 0 46.5 -2t34.5 -3v-198h-77q-108 0 -152.5 -34t-56.5 -96v-874h-258zM134 -431l64 147h-95v204h246v-180l-88 -171h-127z" />
    <glyph glyph-name="Rcaron" unicode="&#x158;" horiz-adv-x="889" 
d="M86 0v1600h351q202 0 291.5 -83t96.5 -274q2 -64 3 -115.5t0 -102t-3 -110.5q-4 -122 -41 -198.5t-116 -115.5l181 -601h-274l-150 558h-80v-558h-259zM345 786h91q65 0 96.5 29.5t34.5 86.5q3 56 4 116.5t0 121t-4 116.5q-3 57 -34.5 86.5t-95.5 29.5h-92v-586z
M370 1682l-156 265h152l71 -137l71 137h151l-155 -265h-134z" />
    <glyph glyph-name="rcaron" unicode="&#x159;" horiz-adv-x="650" 
d="M89 0v1200h258v-141h46q11 83 52.5 115.5t106.5 32.5q24 0 46.5 -2t34.5 -3v-198h-77q-108 0 -152.5 -34t-56.5 -96v-874h-258zM288 1282l-156 265h152l71 -137l71 137h151l-155 -265h-134z" />
    <glyph glyph-name="Sacute" unicode="&#x15a;" horiz-adv-x="882" 
d="M442 -18q-199 0 -284 85t-94 282q-1 39 -1 81t2 83.5t6 81.5h243q-4 -77 -4.5 -152.5t4.5 -140.5q5 -54 35.5 -81.5t92.5 -27.5q61 0 89 27.5t33 81.5q4 40 5.5 76t0 73t-5.5 78q-3 50 -24.5 88t-71.5 51l-149 38q-97 25 -153 72.5t-80.5 119.5t-27.5 170q-1 49 -1 94.5
t1 90.5q5 131 43.5 211.5t121 117t219.5 36.5q193 0 279.5 -84.5t94.5 -280.5q2 -46 1 -113t-4 -129h-248q3 72 4 144.5t-2 144.5q-2 53 -34.5 80t-90.5 27q-62 0 -91 -27t-35 -80q-5 -58 -5 -116t5 -116q5 -52 26.5 -88t75.5 -49l131 -31q103 -25 162 -74.5t84.5 -123.5
t28.5 -173q1 -33 1 -62.5t-0.5 -58t-2.5 -59.5q-8 -197 -93.5 -282t-286.5 -85zM368 1680l180 265h169l-189 -265h-160z" />
    <glyph glyph-name="sacute" unicode="&#x15b;" horiz-adv-x="817" 
d="M402 -18q-177 0 -253.5 76t-83.5 251q-1 35 -0.5 80t2.5 63h226q-2 -53 -2 -97.5t1 -72.5q3 -58 30.5 -82t79.5 -24q63 0 91 24t29 82v35.5v16.5v32q0 42 -15 67.5t-54 37.5l-130 37q-85 26 -144 63.5t-89.5 96.5t-31.5 147v36v35q1 178 80.5 255t275.5 77
q179 0 253.5 -74.5t81.5 -246.5q2 -34 1 -80t-3 -66h-234q1 22 1.5 57t0 68t-1.5 50q-3 54 -24 76t-75 22q-57 0 -79.5 -22t-24.5 -76q-1 -25 -1.5 -39t-0.5 -50q0 -46 14 -77.5t63 -44.5l115 -29q129 -32 194.5 -101.5t65.5 -204.5v-38.5v-38.5q-1 -172 -83 -246.5
t-275 -74.5zM333 1280l180 265h169l-189 -265h-160z" />
    <glyph glyph-name="Scircumflex" unicode="&#x15c;" horiz-adv-x="882" 
d="M442 -18q-199 0 -284 85t-94 282q-1 39 -1 81t2 83.5t6 81.5h243q-4 -77 -4.5 -152.5t4.5 -140.5q5 -54 35.5 -81.5t92.5 -27.5q61 0 89 27.5t33 81.5q4 40 5.5 76t0 73t-5.5 78q-3 50 -24.5 88t-71.5 51l-149 38q-97 25 -153 72.5t-80.5 119.5t-27.5 170q-1 49 -1 94.5
t1 90.5q5 131 43.5 211.5t121 117t219.5 36.5q193 0 279.5 -84.5t94.5 -280.5q2 -46 1 -113t-4 -129h-248q3 72 4 144.5t-2 144.5q-2 53 -34.5 80t-90.5 27q-62 0 -91 -27t-35 -80q-5 -58 -5 -116t5 -116q5 -52 26.5 -88t75.5 -49l131 -31q103 -25 162 -74.5t84.5 -123.5
t28.5 -173q1 -33 1 -62.5t-0.5 -58t-2.5 -59.5q-8 -197 -93.5 -282t-286.5 -85zM207 1682l156 265h151l155 -265h-168l-62 119l-63 -119h-169z" />
    <glyph glyph-name="scircumflex" unicode="&#x15d;" horiz-adv-x="817" 
d="M402 -18q-177 0 -253.5 76t-83.5 251q-1 35 -0.5 80t2.5 63h226q-2 -53 -2 -97.5t1 -72.5q3 -58 30.5 -82t79.5 -24q63 0 91 24t29 82v35.5v16.5v32q0 42 -15 67.5t-54 37.5l-130 37q-85 26 -144 63.5t-89.5 96.5t-31.5 147v36v35q1 178 80.5 255t275.5 77
q179 0 253.5 -74.5t81.5 -246.5q2 -34 1 -80t-3 -66h-234q1 22 1.5 57t0 68t-1.5 50q-3 54 -24 76t-75 22q-57 0 -79.5 -22t-24.5 -76q-1 -25 -1.5 -39t-0.5 -50q0 -46 14 -77.5t63 -44.5l115 -29q129 -32 194.5 -101.5t65.5 -204.5v-38.5v-38.5q-1 -172 -83 -246.5
t-275 -74.5zM173 1282l156 265h151l155 -265h-168l-62 119l-63 -119h-169z" />
    <glyph glyph-name="Scedilla" unicode="&#x15e;" horiz-adv-x="882" 
d="M442 -18q-199 0 -284 85t-94 282q-1 39 -1 81t2 83.5t6 81.5h243q-4 -77 -4.5 -152.5t4.5 -140.5q5 -54 35.5 -81.5t92.5 -27.5q61 0 89 27.5t33 81.5q4 40 5.5 76t0 73t-5.5 78q-3 50 -24.5 88t-71.5 51l-149 38q-97 25 -153 72.5t-80.5 119.5t-27.5 170q-1 49 -1 94.5
t1 90.5q5 131 43.5 211.5t121 117t219.5 36.5q193 0 279.5 -84.5t94.5 -280.5q2 -46 1 -113t-4 -129h-248q3 72 4 144.5t-2 144.5q-2 53 -34.5 80t-90.5 27q-62 0 -91 -27t-35 -80q-5 -58 -5 -116t5 -116q5 -52 26.5 -88t75.5 -49l131 -31q103 -25 162 -74.5t84.5 -123.5
t28.5 -173q1 -33 1 -62.5t-0.5 -58t-2.5 -59.5q-8 -197 -93.5 -282t-286.5 -85zM226 -299v123h62q59 0 83.5 24t16.5 78l-14 91h134l14 -91q16 -119 -40.5 -172t-193.5 -53h-62z" />
    <glyph glyph-name="scedilla" unicode="&#x15f;" horiz-adv-x="817" 
d="M402 -18q-177 0 -253.5 76t-83.5 251q-1 35 -0.5 80t2.5 63h226q-2 -53 -2 -97.5t1 -72.5q3 -58 30.5 -82t79.5 -24q63 0 91 24t29 82v35.5v16.5v32q0 42 -15 67.5t-54 37.5l-130 37q-85 26 -144 63.5t-89.5 96.5t-31.5 147v36v35q1 178 80.5 255t275.5 77
q179 0 253.5 -74.5t81.5 -246.5q2 -34 1 -80t-3 -66h-234q1 22 1.5 57t0 68t-1.5 50q-3 54 -24 76t-75 22q-57 0 -79.5 -22t-24.5 -76q-1 -25 -1.5 -39t-0.5 -50q0 -46 14 -77.5t63 -44.5l115 -29q129 -32 194.5 -101.5t65.5 -204.5v-38.5v-38.5q-1 -172 -83 -246.5
t-275 -74.5zM191 -299v123h62q59 0 83.5 24t16.5 78l-14 91h134l14 -91q16 -119 -40.5 -172t-193.5 -53h-62z" />
    <glyph glyph-name="Scaron" unicode="&#x160;" horiz-adv-x="882" 
d="M442 -18q-199 0 -284 85t-94 282q-1 39 -1 81t2 83.5t6 81.5h243q-4 -77 -4.5 -152.5t4.5 -140.5q5 -54 35.5 -81.5t92.5 -27.5q61 0 89 27.5t33 81.5q4 40 5.5 76t0 73t-5.5 78q-3 50 -24.5 88t-71.5 51l-149 38q-97 25 -153 72.5t-80.5 119.5t-27.5 170q-1 49 -1 94.5
t1 90.5q5 131 43.5 211.5t121 117t219.5 36.5q193 0 279.5 -84.5t94.5 -280.5q2 -46 1 -113t-4 -129h-248q3 72 4 144.5t-2 144.5q-2 53 -34.5 80t-90.5 27q-62 0 -91 -27t-35 -80q-5 -58 -5 -116t5 -116q5 -52 26.5 -88t75.5 -49l131 -31q103 -25 162 -74.5t84.5 -123.5
t28.5 -173q1 -33 1 -62.5t-0.5 -58t-2.5 -59.5q-8 -197 -93.5 -282t-286.5 -85zM372 1682l-156 265h152l71 -137l71 137h151l-155 -265h-134z" />
    <glyph glyph-name="scaron" unicode="&#x161;" horiz-adv-x="817" 
d="M402 -18q-177 0 -253.5 76t-83.5 251q-1 35 -0.5 80t2.5 63h226q-2 -53 -2 -97.5t1 -72.5q3 -58 30.5 -82t79.5 -24q63 0 91 24t29 82v35.5v16.5v32q0 42 -15 67.5t-54 37.5l-130 37q-85 26 -144 63.5t-89.5 96.5t-31.5 147v36v35q1 178 80.5 255t275.5 77
q179 0 253.5 -74.5t81.5 -246.5q2 -34 1 -80t-3 -66h-234q1 22 1.5 57t0 68t-1.5 50q-3 54 -24 76t-75 22q-57 0 -79.5 -22t-24.5 -76q-1 -25 -1.5 -39t-0.5 -50q0 -46 14 -77.5t63 -44.5l115 -29q129 -32 194.5 -101.5t65.5 -204.5v-38.5v-38.5q-1 -172 -83 -246.5
t-275 -74.5zM337 1282l-156 265h152l71 -137l71 137h151l-155 -265h-134z" />
    <glyph glyph-name="uni0162" unicode="&#x162;" horiz-adv-x="769" 
d="M255 0v1372h-243v228h745v-228h-244v-1372h-258zM170 -299v123h62q59 0 83.5 24t16.5 78l-14 91h134l14 -91q16 -119 -40.5 -172t-193.5 -53h-62z" />
    <glyph glyph-name="uni0163" unicode="&#x163;" horiz-adv-x="644" 
d="M523 -18q-206 0 -294.5 76t-88.5 251v695h-106v196h108v340h260v-340h196v-196h-200v-723q0 -59 24 -83t102 -24q24 0 45.5 1t48.5 2v-185q-21 -6 -44.5 -8t-50.5 -2zM178 -299v123h62q59 0 83.5 24t16.5 78l-14 91h134l14 -91q16 -119 -40.5 -172t-193.5 -53h-62z" />
    <glyph glyph-name="Tcaron" unicode="&#x164;" horiz-adv-x="769" 
d="M255 0v1372h-243v228h745v-228h-244v-1372h-258zM317 1682l-156 265h152l71 -137l71 137h151l-155 -265h-134z" />
    <glyph glyph-name="tcaron" unicode="&#x165;" horiz-adv-x="692" 
d="M523 -18q-206 0 -294.5 76t-88.5 251v695h-106v196h108v340h260v-340h196v-196h-200v-723q0 -59 24 -83t102 -24q24 0 45.5 1t48.5 2v-185q-21 -6 -44.5 -8t-50.5 -2zM446 1335l52 265h168l-61 -265h-159z" />
    <glyph glyph-name="Tbar" unicode="&#x166;" horiz-adv-x="769" 
d="M255 0v1372h-243v228h745v-228h-244v-1372h-258zM132 787h505v-132h-505v132z" />
    <glyph glyph-name="tbar" unicode="&#x167;" horiz-adv-x="644" 
d="M523 -18q-206 0 -294.5 76t-88.5 251v695h-106v196h108v340h260v-340h196v-196h-200v-723q0 -59 24 -83t102 -24q24 0 45.5 1t48.5 2v-185q-21 -6 -44.5 -8t-50.5 -2zM61 750h505v-132h-505v132z" />
    <glyph glyph-name="Utilde" unicode="&#x168;" horiz-adv-x="906" 
d="M454 -18q-203 0 -291 84.5t-91 281.5q-4 311 -4 626.5t4 625.5h259q-4 -207 -4.5 -428.5t0.5 -442.5t3 -428q0 -53 32 -80.5t92 -27.5q61 0 91.5 27.5t30.5 80.5q2 207 3.5 428t1 442.5t-4.5 428.5h258q5 -310 5 -625.5t-5 -626.5q-3 -197 -90 -281.5t-290 -84.5z
M594 1879h100q-5 -103 -40.5 -151.5t-102.5 -48.5q-41 0 -65 13.5t-40.5 31t-34 31t-44.5 13.5q-30 0 -39.5 -20.5t-12.5 -57.5h-100q7 112 45 161t105 49q41 0 66.5 -13t42.5 -30.5t34 -31t42 -13.5t33.5 17t10.5 50z" />
    <glyph glyph-name="utilde" unicode="&#x169;" horiz-adv-x="932" 
d="M334 -18q-116 0 -184.5 72.5t-68.5 240.5v905h258v-927q0 -53 23.5 -77.5t71.5 -24.5q43 0 88 25.5t63 69.5v934h259v-1200h-259v124h-36q-41 -76 -92 -109t-123 -33zM599 1479h100q-5 -103 -40.5 -151.5t-102.5 -48.5q-41 0 -65 13.5t-40.5 31t-34 31t-44.5 13.5
q-30 0 -39.5 -20.5t-12.5 -57.5h-100q7 112 45 161t105 49q41 0 66.5 -13t42.5 -30.5t34 -31t42 -13.5t33.5 17t10.5 50z" />
    <glyph glyph-name="Umacron" unicode="&#x16a;" horiz-adv-x="906" 
d="M454 -18q-203 0 -291 84.5t-91 281.5q-4 311 -4 626.5t4 625.5h259q-4 -207 -4.5 -428.5t0.5 -442.5t3 -428q0 -53 32 -80.5t92 -27.5q61 0 91.5 27.5t30.5 80.5q2 207 3.5 428t1 442.5t-4.5 428.5h258q5 -310 5 -625.5t-5 -626.5q-3 -197 -90 -281.5t-290 -84.5z
M145 1784h614v-120h-614v120z" />
    <glyph glyph-name="umacron" unicode="&#x16b;" horiz-adv-x="932" 
d="M334 -18q-116 0 -184.5 72.5t-68.5 240.5v905h258v-927q0 -53 23.5 -77.5t71.5 -24.5q43 0 88 25.5t63 69.5v934h259v-1200h-259v124h-36q-41 -76 -92 -109t-123 -33zM150 1384h614v-120h-614v120z" />
    <glyph glyph-name="Ubreve" unicode="&#x16c;" horiz-adv-x="906" 
d="M454 -18q-203 0 -291 84.5t-91 281.5q-4 311 -4 626.5t4 625.5h259q-4 -207 -4.5 -428.5t0.5 -442.5t3 -428q0 -53 32 -80.5t92 -27.5q61 0 91.5 27.5t30.5 80.5q2 207 3.5 428t1 442.5t-4.5 428.5h258q5 -310 5 -625.5t-5 -626.5q-3 -197 -90 -281.5t-290 -84.5z
M454 1671q-142 0 -207 63.5t-73 210.5h156q0 -76 28.5 -109t95.5 -33q66 0 94.5 33t29.5 109h155q-9 -147 -73.5 -210.5t-205.5 -63.5z" />
    <glyph glyph-name="ubreve" unicode="&#x16d;" horiz-adv-x="932" 
d="M334 -18q-116 0 -184.5 72.5t-68.5 240.5v905h258v-927q0 -53 23.5 -77.5t71.5 -24.5q43 0 88 25.5t63 69.5v934h259v-1200h-259v124h-36q-41 -76 -92 -109t-123 -33zM460 1271q-142 0 -207 63.5t-73 210.5h156q0 -76 28.5 -109t95.5 -33q66 0 94.5 33t29.5 109h155
q-9 -147 -73.5 -210.5t-205.5 -63.5z" />
    <glyph glyph-name="Uring" unicode="&#x16e;" horiz-adv-x="906" 
d="M454 -18q-203 0 -291 84.5t-91 281.5q-4 311 -4 626.5t4 625.5h259q-4 -207 -4.5 -428.5t0.5 -442.5t3 -428q0 -53 32 -80.5t92 -27.5q61 0 91.5 27.5t30.5 80.5q2 207 3.5 428t1 442.5t-4.5 428.5h258q5 -310 5 -625.5t-5 -626.5q-3 -197 -90 -281.5t-290 -84.5z
M454 1671q-80 0 -137.5 57t-57.5 137q0 81 57.5 138t137.5 57t137 -57t57 -138q0 -80 -57 -137t-137 -57zM454 1806q25 0 42 17.5t17 41.5q0 26 -17 42.5t-42 16.5t-42 -16.5t-17 -42.5q0 -24 17 -41.5t42 -17.5z" />
    <glyph glyph-name="uring" unicode="&#x16f;" horiz-adv-x="932" 
d="M334 -18q-116 0 -184.5 72.5t-68.5 240.5v905h258v-927q0 -53 23.5 -77.5t71.5 -24.5q43 0 88 25.5t63 69.5v934h259v-1200h-259v124h-36q-41 -76 -92 -109t-123 -33zM460 1271q-80 0 -137.5 57t-57.5 137q0 81 57.5 138t137.5 57t137 -57t57 -138q0 -80 -57 -137
t-137 -57zM460 1406q25 0 42 17.5t17 41.5q0 26 -17 42.5t-42 16.5t-42 -16.5t-17 -42.5q0 -24 17 -41.5t42 -17.5z" />
    <glyph glyph-name="Uhungarumlaut" unicode="&#x170;" horiz-adv-x="906" 
d="M454 -18q-203 0 -291 84.5t-91 281.5q-4 311 -4 626.5t4 625.5h259q-4 -207 -4.5 -428.5t0.5 -442.5t3 -428q0 -53 32 -80.5t92 -27.5q61 0 91.5 27.5t30.5 80.5q2 207 3.5 428t1 442.5t-4.5 428.5h258q5 -310 5 -625.5t-5 -626.5q-3 -197 -90 -281.5t-290 -84.5z
M229 1682l212 265h178l-212 -265h-178zM500 1682l212 265h178l-212 -265h-178z" />
    <glyph glyph-name="uhungarumlaut" unicode="&#x171;" horiz-adv-x="932" 
d="M334 -18q-116 0 -184.5 72.5t-68.5 240.5v905h258v-927q0 -53 23.5 -77.5t71.5 -24.5q43 0 88 25.5t63 69.5v934h259v-1200h-259v124h-36q-41 -76 -92 -109t-123 -33zM235 1282l212 265h178l-212 -265h-178zM506 1282l212 265h178l-212 -265h-178z" />
    <glyph glyph-name="Uogonek" unicode="&#x172;" horiz-adv-x="906" 
d="M454 -18q-203 0 -291 84.5t-91 281.5q-4 311 -4 626.5t4 625.5h259q-4 -207 -4.5 -428.5t0.5 -442.5t3 -428q0 -53 32 -80.5t92 -27.5q61 0 91.5 27.5t30.5 80.5q2 207 3.5 428t1 442.5t-4.5 428.5h258q5 -310 5 -625.5t-5 -626.5q-3 -197 -90 -281.5t-290 -84.5z
M782 -308h-63q-136 0 -193 53t-40 172l14 91h134l-14 -91q-7 -54 16.5 -78t82.5 -24h63v-123z" />
    <glyph glyph-name="uogonek" unicode="&#x173;" horiz-adv-x="932" 
d="M334 -18q-116 0 -184.5 72.5t-68.5 240.5v905h258v-927q0 -53 23.5 -77.5t71.5 -24.5q43 0 88 25.5t63 69.5v934h259v-1200h-259v124h-36q-41 -76 -92 -109t-123 -33zM867 -316h-63q-136 0 -193 53t-40 172l14 91h134l-14 -91q-7 -54 16.5 -78t82.5 -24h63v-123z" />
    <glyph glyph-name="Wcircumflex" unicode="&#x174;" horiz-adv-x="1465" 
d="M183 0l-141 1600h260l47 -699l34 -673h51l8 673l118 689h345l119 -689l7 -673h51l34 673l48 699h260l-142 -1600h-428l-66 466l-30 904h-51l-30 -904l-66 -466h-428zM500 1682l156 265h151l155 -265h-168l-62 119l-63 -119h-169z" />
    <glyph glyph-name="wcircumflex" unicode="&#x175;" horiz-adv-x="1412" 
d="M179 0l-150 1200h260l51 -603l19 -406h69l14 406l54 601h419l52 -601l13 -406h69l20 406l53 603h262l-155 -1200h-437l-36 466l-16 542h-70l-18 -542l-36 -466h-437zM472 1282l156 265h151l155 -265h-168l-62 119l-63 -119h-169z" />
    <glyph glyph-name="Ycircumflex" unicode="&#x176;" horiz-adv-x="860" 
d="M301 0v390v2l-280 1208h264l84 -404l36 -467h51l35 467l84 404h264l-280 -1209v-2v-389h-258zM189 1682l156 265h151l155 -265h-168l-62 119l-63 -119h-169z" />
    <glyph glyph-name="ycircumflex" unicode="&#x177;" horiz-adv-x="832" 
d="M210 -418q-32 0 -71.5 3.5t-73.5 9.5v192q26 -1 71 -3t74 -2q78 0 108.5 24.5t37.5 82.5l15 111h-138l-205 1200h262l63 -553l49 -456h64l26 456l51 553h262l-191 -1291q-17 -116 -59.5 -188t-124.5 -105.5t-220 -33.5zM185 1282l156 265h151l155 -265h-168l-62 119
l-63 -119h-169z" />
    <glyph glyph-name="Ydieresis" unicode="&#x178;" horiz-adv-x="860" 
d="M301 0v390v2l-280 1208h264l84 -404l36 -467h51l35 467l84 404h264l-280 -1209v-2v-389h-258zM471 1710v176h176v-176h-176zM196 1710v176h175v-176h-175z" />
    <glyph glyph-name="Zacute" unicode="&#x179;" horiz-adv-x="776" 
d="M34 0v215l431 1157h-407v228h683v-219l-448 -1153h417v-228h-676zM311 1680l180 265h169l-189 -265h-160z" />
    <glyph glyph-name="zacute" unicode="&#x17a;" horiz-adv-x="741" 
d="M39 0v164l390 845l-382 -1v191l657 1v-169l-396 -840h391v-191h-660zM299 1280l180 265h169l-189 -265h-160z" />
    <glyph glyph-name="Zdotaccent" unicode="&#x17b;" horiz-adv-x="776" 
d="M34 0v215l431 1157h-407v228h683v-219l-448 -1153h417v-228h-676zM295 1680v176h176v-176h-176z" />
    <glyph glyph-name="zdotaccent" unicode="&#x17c;" horiz-adv-x="741" 
d="M39 0v164l390 845l-382 -1v191l657 1v-169l-396 -840h391v-191h-660zM283 1280v176h176v-176h-176z" />
    <glyph glyph-name="Zcaron" unicode="&#x17d;" horiz-adv-x="776" 
d="M34 0v215l431 1157h-407v228h683v-219l-448 -1153h417v-228h-676zM315 1682l-156 265h152l71 -137l71 137h151l-155 -265h-134z" />
    <glyph glyph-name="zcaron" unicode="&#x17e;" horiz-adv-x="741" 
d="M39 0v164l390 845l-382 -1v191l657 1v-169l-396 -840h391v-191h-660zM303 1282l-156 265h152l71 -137l71 137h151l-155 -265h-134z" />
    <glyph glyph-name="uni018F" unicode="&#x18f;" horiz-adv-x="925" 
d="M464 -19q-197 0 -287 85t-92 281q-1 134 -1 254t1 275h511q-1 111 -3 218t-5 204q-1 54 -33 81.5t-91 27.5q-62 0 -94.5 -27.5t-34.5 -81.5q-1 -38 -1.5 -89t0 -105t1.5 -99h-258q-1 60 -1.5 126t1.5 120q5 197 95.5 282t291.5 85q205 0 292 -85t90 -282q2 -97 3 -213
t1 -238.5t-1 -239.5t-3 -215q-3 -169 -92.5 -266.5t-289.5 -97.5zM464 192q59 0 91 27.5t33 80.5q3 94 5 193.5t3 203.5h-258v-136t1.5 -130.5t3.5 -130.5q2 -53 32.5 -80.5t88.5 -27.5z" />
    <glyph glyph-name="florin" unicode="&#x192;" horiz-adv-x="1345" 
d="M231 -19q-39 0 -75.5 5t-69.5 10l33 191q25 -2 65.5 -3.5t62.5 -1.5q62 0 105.5 33.5t57.5 87.5l122 457h-232v127h266l112 420q47 175 151.5 244t284.5 69q41 0 77 -4.5t67 -10.5l-31 -187q-31 1 -63 1h-65q-62 0 -105.5 -33t-59.5 -87l-110 -412h277v-127h-312
l-124 -465q-31 -117 -86.5 -185.5t-141 -98.5t-206.5 -30z" />
    <glyph glyph-name="Ohorn" unicode="&#x1a0;" horiz-adv-x="924" 
d="M462 -18q-200 0 -289 84.5t-93 281.5q-2 109 -3.5 223t-1.5 229.5t1.5 229.5t3.5 224q4 196 93 280t289 84q201 0 288 -84t93 -280q3 -111 5 -225t2 -229.5t-2 -229t-5 -222.5q-6 -197 -93 -281.5t-288 -84.5zM462 193q62 0 92 27t31 81q4 113 6 240.5t2 260t-2 259.5
t-6 240q-1 53 -32 79.5t-91 26.5t-91 -26.5t-33 -79.5q-4 -113 -6.5 -240t-2.5 -259.5t2.5 -260t6.5 -240.5q2 -54 33 -81t91 -27zM659 1469q-7 0 -18 0.5t-27 3.5l-1 127h30h16q58 0 83 35t30 116q1 20 1.5 57t0 74t-1.5 56h143q1 -19 1.5 -56t0 -74t-1.5 -57
q-9 -146 -70 -214t-186 -68z" />
    <glyph glyph-name="ohorn" unicode="&#x1a1;" horiz-adv-x="897" 
d="M450 -18q-134 0 -213.5 36.5t-116.5 117t-44 212.5q-2 46 -3.5 111.5t-1.5 138t1 140t4 116.5q7 130 43.5 210.5t116 117t214.5 36.5t213.5 -37t115 -117.5t43.5 -209.5q2 -46 3 -112t1 -138.5t-1 -139.5t-3 -116q-7 -130 -43.5 -211t-115 -118t-213.5 -37zM450 176
q61 0 86.5 27t27.5 81q2 79 3.5 158t1.5 159t-1.5 159t-3.5 157q-2 54 -27.5 80.5t-86.5 26.5q-60 0 -87 -26.5t-29 -80.5q-2 -78 -3.5 -157.5t-1.5 -159t1.5 -159t3.5 -157.5q2 -54 29 -81t87 -27zM642 1071q-7 0 -18 0.5t-27 3.5l-1 127h30h16q58 0 83 35t30 116
q1 20 1.5 57t0 74t-1.5 56h143q1 -19 1.5 -56t0 -74t-1.5 -57q-9 -146 -70 -214t-186 -68z" />
    <glyph glyph-name="Uhorn" unicode="&#x1af;" horiz-adv-x="906" 
d="M454 -18q-203 0 -291 84.5t-91 281.5q-4 311 -4 626.5t4 625.5h259q-4 -207 -4.5 -428.5t0.5 -442.5t3 -428q0 -53 32 -80.5t92 -27.5q61 0 91.5 27.5t30.5 80.5q2 207 3.5 428t1 442.5t-4.5 428.5h258q5 -310 5 -625.5t-5 -626.5q-3 -197 -90 -281.5t-290 -84.5z
M698 1469q-7 0 -18 0.5t-27 3.5l-1 127h30h16q58 0 83 35t30 116q1 20 1.5 57t0 74t-1.5 56h143q1 -19 1.5 -56t0 -74t-1.5 -57q-9 -146 -70 -214t-186 -68z" />
    <glyph glyph-name="uhorn" unicode="&#x1b0;" horiz-adv-x="932" 
d="M334 -18q-116 0 -184.5 72.5t-68.5 240.5v905h258v-927q0 -53 23.5 -77.5t71.5 -24.5q43 0 88 25.5t63 69.5v934h259v-1200h-259v124h-36q-41 -76 -92 -109t-123 -33zM714 1069q-7 0 -18 0.5t-27 3.5l-1 127h30h16q58 0 83 35t30 116q1 20 1.5 57t0 74t-1.5 56h143
q1 -19 1.5 -56t0 -74t-1.5 -57q-9 -146 -70 -214t-186 -68z" />
    <glyph glyph-name="uni01C4" unicode="&#x1c4;" horiz-adv-x="1679" 
d="M86 0v1600h369q203 0 294 -87t94 -287q3 -152 4 -288.5t0 -273t-4 -288.5q-3 -201 -94 -288.5t-295 -87.5h-368zM345 228h109q65 0 97.5 30t33.5 87q3 115 4.5 228.5t1.5 227.5t-1.5 228t-4.5 227q-1 57 -33.5 86.5t-96.5 29.5h-110v-1144zM937 0v215l431 1157h-407v228
h683v-219l-448 -1153h417v-228h-676zM1218 1682l-156 265h152l71 -137l71 137h151l-155 -265h-134z" />
    <glyph glyph-name="uni01C5" unicode="&#x1c5;" horiz-adv-x="1664" 
d="M86 0v1600h369q203 0 294 -87t94 -287q3 -152 4 -288.5t0 -273t-4 -288.5q-3 -201 -94 -288.5t-295 -87.5h-368zM345 228h109q65 0 97.5 30t33.5 87q3 115 4.5 228.5t1.5 227.5t-1.5 228t-4.5 227q-1 57 -33.5 86.5t-96.5 29.5h-110v-1144zM961 0v164l390 845l-382 -1
v191l657 1v-169l-396 -840h391v-191h-660zM1226 1282l-156 265h152l71 -137l71 137h151l-155 -265h-134z" />
    <glyph glyph-name="uni01C6" unicode="&#x1c6;" horiz-adv-x="1668" 
d="M324 -18q-117 0 -179 72.5t-70 240.5q-2 56 -3 136t-1 167t1 168t3 140q8 168 72 240t180 72q89 0 132.5 -36.5t82.5 -105.5h38v524h258v-1600h-258v124h-38q-39 -68 -84.5 -105t-133.5 -37zM428 171q45 0 89 25t63 70v668q-19 45 -63 70t-89 25q-48 0 -70 -24.5
t-25 -77.5q-4 -99 -5.5 -217.5t0 -233.5t5.5 -203q3 -53 25 -77.5t70 -24.5zM966 0v164l390 845l-382 -1v191l657 1v-169l-396 -840h391v-191h-660zM1230 1282l-156 265h152l71 -137l71 137h151l-155 -265h-134z" />
    <glyph glyph-name="uni01C7" unicode="&#x1c7;" horiz-adv-x="1591" 
d="M86 0v1600h259v-1372h375v-228h-634zM1151 -18q-133 0 -211 37t-113 118t-38 212q-1 57 -1 122.5t1 123.5h243q-1 -41 -1.5 -94t0 -105.5t1.5 -93.5q2 -54 30.5 -81.5t88.5 -27.5q61 0 87.5 27.5t26.5 81.5v1298h258v-1251q0 -197 -83.5 -282t-288.5 -85z" />
    <glyph glyph-name="uni01C8" unicode="&#x1c8;" horiz-adv-x="1186" 
d="M86 0v1600h259v-1372h375v-228h-634zM829 1391v209h277v-209h-277zM727 -422q-32 0 -69.5 4t-70.5 9v193q26 -2 68 -3.5t71 -1.5q55 0 84 26.5t29 80.5v1314h258v-1294q0 -175 -91 -251.5t-279 -76.5z" />
    <glyph glyph-name="uni01C9" unicode="&#x1c9;" horiz-adv-x="874" 
d="M89 0v1600h258v-1600h-258zM517 1391v209h277v-209h-277zM415 -422q-32 0 -69.5 4t-70.5 9v193q26 -2 68 -3.5t71 -1.5q55 0 84 26.5t29 80.5v1314h258v-1294q0 -175 -91 -251.5t-279 -76.5z" />
    <glyph glyph-name="uni01CA" unicode="&#x1ca;" horiz-adv-x="1859" 
d="M86 0v1600h382l113 -509l116 -863h50l-47 716l-21 656h250v-1600h-400l-115 536l-90 838h-54l44 -764l22 -610h-250zM1419 -18q-133 0 -211 37t-113 118t-38 212q-1 57 -1 122.5t1 123.5h243q-1 -41 -1.5 -94t0 -105.5t1.5 -93.5q2 -54 30.5 -81.5t88.5 -27.5
q61 0 87.5 27.5t26.5 81.5v1298h258v-1251q0 -197 -83.5 -282t-288.5 -85z" />
    <glyph glyph-name="uni01CB" unicode="&#x1cb;" horiz-adv-x="1454" 
d="M86 0v1600h382l113 -509l116 -863h50l-47 716l-21 656h250v-1600h-400l-115 536l-90 838h-54l44 -764l22 -610h-250zM1097 1391v209h277v-209h-277zM995 -422q-32 0 -69.5 4t-70.5 9v193q26 -2 68 -3.5t71 -1.5q55 0 84 26.5t29 80.5v1314h258v-1294q0 -175 -91 -251.5
t-279 -76.5z" />
    <glyph glyph-name="uni01CC" unicode="&#x1cc;" horiz-adv-x="1377" 
d="M89 0v1200h258v-124h46q39 68 83.5 105t131.5 37q117 0 182 -72t65 -240v-906h-258v927q0 53 -24.5 77.5t-73.5 24.5q-43 0 -88.5 -25.5t-63.5 -69.5v-934h-258zM1020 1391v209h277v-209h-277zM918 -422q-32 0 -69.5 4t-70.5 9v193q26 -2 68 -3.5t71 -1.5q55 0 84 26.5
t29 80.5v1314h258v-1294q0 -175 -91 -251.5t-279 -76.5z" />
    <glyph glyph-name="uni01CD" unicode="&#x1cd;" 
d="M26 0l209 1600h416l209 -1600h-265l-36 367h-232l-36 -367h-265zM351 595h184l-35 352l-29 425h-56l-29 -425zM375 1682l-156 265h152l71 -137l71 137h151l-155 -265h-134z" />
    <glyph glyph-name="uni01CE" unicode="&#x1ce;" horiz-adv-x="887" 
d="M315 -15q-124 0 -182.5 62.5t-71.5 209.5q-1 20 -1 46t1 46q6 79 34.5 136t88.5 101.5t159 83.5q52 22 101 37.5t102 30.5v180q0 52 -21 79t-81 27q-51 0 -72.5 -22t-24.5 -76q-1 -17 -1.5 -50.5t0 -68.5t1.5 -56h-251q-1 18 -2 64.5t0 81.5q5 112 40 183t111.5 104.5
t205.5 33.5q135 0 211.5 -37t108 -116.5t31.5 -207.5l-1 -857h-258v124h-34q-32 -71 -75 -105t-119 -34zM420 171q42 0 74 24t51 65v307q-36 -9 -70 -21.5t-66 -30.5q-53 -28 -72 -70.5t-22 -95.5v-36.5t1 -34.5q5 -52 31 -79.5t73 -27.5zM381 1282l-156 265h152l71 -137
l71 137h151l-155 -265h-134z" />
    <glyph glyph-name="uni01CF" unicode="&#x1cf;" horiz-adv-x="431" 
d="M86 0v1600h259v-1600h-259zM147 1682l-156 265h152l71 -137l71 137h151l-155 -265h-134z" />
    <glyph glyph-name="uni01D0" unicode="&#x1d0;" horiz-adv-x="436" 
d="M89 0v1200h258v-1200h-258zM150 1282l-156 265h152l71 -137l71 137h151l-155 -265h-134z" />
    <glyph glyph-name="uni01D1" unicode="&#x1d1;" horiz-adv-x="924" 
d="M462 -18q-200 0 -289 84.5t-93 281.5q-2 109 -3.5 223t-1.5 229.5t1.5 229.5t3.5 224q4 196 93 280t289 84q201 0 288 -84t93 -280q3 -111 5 -225t2 -229.5t-2 -229t-5 -222.5q-6 -197 -93 -281.5t-288 -84.5zM462 193q62 0 92 27t31 81q4 113 6 240.5t2 260t-2 259.5
t-6 240q-1 53 -32 79.5t-91 26.5t-91 -26.5t-33 -79.5q-4 -113 -6.5 -240t-2.5 -259.5t2.5 -260t6.5 -240.5q2 -54 33 -81t91 -27zM395 1682l-156 265h152l71 -137l71 137h151l-155 -265h-134z" />
    <glyph glyph-name="uni01D2" unicode="&#x1d2;" horiz-adv-x="897" 
d="M450 -18q-134 0 -213.5 36.5t-116.5 117t-44 212.5q-2 46 -3.5 111.5t-1.5 138t1 140t4 116.5q7 130 43.5 210.5t116 117t214.5 36.5t213.5 -37t115 -117.5t43.5 -209.5q2 -46 3 -112t1 -138.5t-1 -139.5t-3 -116q-7 -130 -43.5 -211t-115 -118t-213.5 -37zM450 176
q61 0 86.5 27t27.5 81q2 79 3.5 158t1.5 159t-1.5 159t-3.5 157q-2 54 -27.5 80.5t-86.5 26.5q-60 0 -87 -26.5t-29 -80.5q-2 -78 -3.5 -157.5t-1.5 -159t1.5 -159t3.5 -157.5q2 -54 29 -81t87 -27zM381 1282l-156 265h152l71 -137l71 137h151l-155 -265h-134z" />
    <glyph glyph-name="uni01D3" unicode="&#x1d3;" horiz-adv-x="906" 
d="M454 -18q-203 0 -291 84.5t-91 281.5q-4 311 -4 626.5t4 625.5h259q-4 -207 -4.5 -428.5t0.5 -442.5t3 -428q0 -53 32 -80.5t92 -27.5q61 0 91.5 27.5t30.5 80.5q2 207 3.5 428t1 442.5t-4.5 428.5h258q5 -310 5 -625.5t-5 -626.5q-3 -197 -90 -281.5t-290 -84.5z
M386 1682l-156 265h152l71 -137l71 137h151l-155 -265h-134z" />
    <glyph glyph-name="uni01D4" unicode="&#x1d4;" horiz-adv-x="932" 
d="M334 -18q-116 0 -184.5 72.5t-68.5 240.5v905h258v-927q0 -53 23.5 -77.5t71.5 -24.5q43 0 88 25.5t63 69.5v934h259v-1200h-259v124h-36q-41 -76 -92 -109t-123 -33zM391 1282l-156 265h152l71 -137l71 137h151l-155 -265h-134z" />
    <glyph glyph-name="uni01D5" unicode="&#x1d5;" horiz-adv-x="906" 
d="M454 -18q-203 0 -291 84.5t-91 281.5q-4 311 -4 626.5t4 625.5h259q-4 -207 -4.5 -428.5t0.5 -442.5t3 -428q0 -53 32 -80.5t92 -27.5q61 0 91.5 27.5t30.5 80.5q2 207 3.5 428t1 442.5t-4.5 428.5h258q5 -310 5 -625.5t-5 -626.5q-3 -197 -90 -281.5t-290 -84.5z
M504 1710v176h176v-176h-176zM229 1710v176h175v-176h-175zM145 2041h614v-120h-614v120z" />
    <glyph glyph-name="uni01D6" unicode="&#x1d6;" horiz-adv-x="932" 
d="M334 -18q-116 0 -184.5 72.5t-68.5 240.5v905h258v-927q0 -53 23.5 -77.5t71.5 -24.5q43 0 88 25.5t63 69.5v934h259v-1200h-259v124h-36q-41 -76 -92 -109t-123 -33zM509 1310v176h176v-176h-176zM234 1310v176h175v-176h-175zM150 1641h614v-120h-614v120z" />
    <glyph glyph-name="uni01D7" unicode="&#x1d7;" horiz-adv-x="906" 
d="M454 -18q-203 0 -291 84.5t-91 281.5q-4 311 -4 626.5t4 625.5h259q-4 -207 -4.5 -428.5t0.5 -442.5t3 -428q0 -53 32 -80.5t92 -27.5q61 0 91.5 27.5t30.5 80.5q2 207 3.5 428t1 442.5t-4.5 428.5h258q5 -310 5 -625.5t-5 -626.5q-3 -197 -90 -281.5t-290 -84.5z
M504 1710v176h176v-176h-176zM229 1710v176h175v-176h-175zM382 1937l180 265h169l-189 -265h-160z" />
    <glyph glyph-name="uni01D8" unicode="&#x1d8;" horiz-adv-x="932" 
d="M334 -18q-116 0 -184.5 72.5t-68.5 240.5v905h258v-927q0 -53 23.5 -77.5t71.5 -24.5q43 0 88 25.5t63 69.5v934h259v-1200h-259v124h-36q-41 -76 -92 -109t-123 -33zM509 1310v176h176v-176h-176zM234 1310v176h175v-176h-175zM387 1537l180 265h169l-189 -265h-160z
" />
    <glyph glyph-name="uni01D9" unicode="&#x1d9;" horiz-adv-x="906" 
d="M454 -18q-203 0 -291 84.5t-91 281.5q-4 311 -4 626.5t4 625.5h259q-4 -207 -4.5 -428.5t0.5 -442.5t3 -428q0 -53 32 -80.5t92 -27.5q61 0 91.5 27.5t30.5 80.5q2 207 3.5 428t1 442.5t-4.5 428.5h258q5 -310 5 -625.5t-5 -626.5q-3 -197 -90 -281.5t-290 -84.5z
M504 1710v176h176v-176h-176zM229 1710v176h175v-176h-175zM386 1939l-156 265h152l71 -137l71 137h151l-155 -265h-134z" />
    <glyph glyph-name="uni01DA" unicode="&#x1da;" horiz-adv-x="932" 
d="M334 -18q-116 0 -184.5 72.5t-68.5 240.5v905h258v-927q0 -53 23.5 -77.5t71.5 -24.5q43 0 88 25.5t63 69.5v934h259v-1200h-259v124h-36q-41 -76 -92 -109t-123 -33zM509 1310v176h176v-176h-176zM234 1310v176h175v-176h-175zM391 1539l-156 265h152l71 -137l71 137
h151l-155 -265h-134z" />
    <glyph glyph-name="uni01DB" unicode="&#x1db;" horiz-adv-x="906" 
d="M454 -18q-203 0 -291 84.5t-91 281.5q-4 311 -4 626.5t4 625.5h259q-4 -207 -4.5 -428.5t0.5 -442.5t3 -428q0 -53 32 -80.5t92 -27.5q61 0 91.5 27.5t30.5 80.5q2 207 3.5 428t1 442.5t-4.5 428.5h258q5 -310 5 -625.5t-5 -626.5q-3 -197 -90 -281.5t-290 -84.5z
M504 1710v176h176v-176h-176zM229 1710v176h175v-176h-175zM347 1937l-172 265h169l164 -265h-161z" />
    <glyph glyph-name="uni01DC" unicode="&#x1dc;" horiz-adv-x="932" 
d="M334 -18q-116 0 -184.5 72.5t-68.5 240.5v905h258v-927q0 -53 23.5 -77.5t71.5 -24.5q43 0 88 25.5t63 69.5v934h259v-1200h-259v124h-36q-41 -76 -92 -109t-123 -33zM509 1310v176h176v-176h-176zM234 1310v176h175v-176h-175zM353 1537l-172 265h169l164 -265h-161z
" />
    <glyph glyph-name="uni01DD" unicode="&#x1dd;" horiz-adv-x="860" 
d="M417 1218q188 0 273.5 -76t93.5 -251q2 -46 3.5 -122.5t1.5 -163.5t-1.5 -165t-3.5 -127q-11 -178 -95.5 -254.5t-268.5 -76.5q-183 0 -265.5 74.5t-91.5 246.5q-1 24 -1.5 80.5t0 126.5t3.5 134h465q0 70 -1 138t-3 136q-1 58 -26.5 82t-82.5 24q-52 0 -74.5 -24
t-25.5 -82q-1 -28 -1 -72t1 -99h-252q-1 20 -2 64.5t0 79.5q9 175 90.5 251t263.5 76zM530 464h-215q-1 -43 -0.5 -82.5t1 -68t1.5 -39.5q3 -52 27 -75t76 -23q56 0 80.5 23t25.5 75q2 49 2.5 96t1.5 94z" />
    <glyph glyph-name="Gcaron" unicode="&#x1e6;" horiz-adv-x="914" 
d="M463 -18q-136 0 -218.5 37t-120.5 118t-43 212q-3 97 -4.5 212t-1.5 234.5t1.5 233.5t4.5 209q5 138 44.5 222t121.5 121t216 37q190 0 277.5 -84.5t98.5 -280.5q3 -54 3 -120.5t-3 -121.5h-258q3 63 3 145t-3 144q-3 53 -33 80t-85 27q-60 0 -90.5 -27t-33.5 -80
q-5 -115 -7.5 -242t-2.5 -257.5t2.5 -257t7.5 -241.5q3 -54 33.5 -81.5t90.5 -27.5t94 27.5t37 81.5q2 31 2.5 72.5t0 83.5t-2.5 72h-115v225h367q4 -87 3 -194.5t-5 -211.5q-9 -197 -97.5 -282t-283.5 -85zM387 1682l-156 265h152l71 -137l71 137h151l-155 -265h-134z" />
    <glyph glyph-name="gcaron" unicode="&#x1e7;" horiz-adv-x="934" 
d="M429 -384q-168 0 -253.5 46t-102.5 134q-3 12 -4.5 30.5t0.5 36.5q6 48 39.5 84.5t91.5 43.5v38q-52 9 -83 38t-38 75q-1 13 -1 27t1 30q5 43 43.5 70t97.5 35v38q-79 36 -117 107t-46 187q-1 40 -2 71.5t-1 59.5t1 57t2 63q7 115 44 188t116.5 108t212.5 35
q125 0 198.5 -31.5t114.5 -100.5h38q7 60 43 87t108 27v-196h-32q-48 0 -75 -24t-27 -85v-71v-46.5t0.5 -42.5t0 -45t-2.5 -54q-8 -120 -45.5 -193.5t-115.5 -106t-207 -32.5q-91 0 -125 -14t-34 -47v-7q0 -21 9 -33.5t41 -18.5t104 -7q196 -3 287 -62t108 -175
q4 -19 4 -39.5t-4 -46.5q-8 -82 -53.5 -134.5t-129 -78t-206.5 -25.5zM435 -206q53 0 89.5 9t57.5 26.5t28 43.5q5 16 4 29.5t-5 27.5q-8 27 -29.5 43t-57.5 23.5t-87 8.5q-78 1 -115.5 -17t-47.5 -58q-4 -14 -3.5 -29t3.5 -28q6 -27 25 -44.5t53 -26t85 -8.5zM427 498
q66 0 89 27t26 75q2 29 3.5 71t1.5 88t-1.5 88.5t-3.5 73.5q-3 53 -27.5 78t-87.5 25t-89 -25.5t-28 -80.5q-2 -50 -3 -93.5t-1 -82.5t1 -73t3 -63q4 -47 25.5 -77.5t91.5 -30.5zM362 1282l-156 265h152l71 -137l71 137h151l-155 -265h-134z" />
    <glyph glyph-name="uni01EA" unicode="&#x1ea;" horiz-adv-x="924" 
d="M462 -18q-200 0 -289 84.5t-93 281.5q-2 109 -3.5 223t-1.5 229.5t1.5 229.5t3.5 224q4 196 93 280t289 84q201 0 288 -84t93 -280q3 -111 5 -225t2 -229.5t-2 -229t-5 -222.5q-6 -197 -93 -281.5t-288 -84.5zM462 193q62 0 92 27t31 81q4 113 6 240.5t2 260t-2 259.5
t-6 240q-1 53 -32 79.5t-91 26.5t-91 -26.5t-33 -79.5q-4 -113 -6.5 -240t-2.5 -259.5t2.5 -260t6.5 -240.5q2 -54 33 -81t91 -27zM790 -308h-63q-136 0 -193 53t-40 172l14 91h134l-14 -91q-7 -54 16.5 -78t82.5 -24h63v-123z" />
    <glyph glyph-name="uni01EB" unicode="&#x1eb;" horiz-adv-x="897" 
d="M450 -18q-134 0 -213.5 36.5t-116.5 117t-44 212.5q-2 46 -3.5 111.5t-1.5 138t1 140t4 116.5q7 130 43.5 210.5t116 117t214.5 36.5t213.5 -37t115 -117.5t43.5 -209.5q2 -46 3 -112t1 -138.5t-1 -139.5t-3 -116q-7 -130 -43.5 -211t-115 -118t-213.5 -37zM450 176
q61 0 86.5 27t27.5 81q2 79 3.5 158t1.5 159t-1.5 159t-3.5 157q-2 54 -27.5 80.5t-86.5 26.5q-60 0 -87 -26.5t-29 -80.5q-2 -78 -3.5 -157.5t-1.5 -159t1.5 -159t3.5 -157.5q2 -54 29 -81t87 -27zM784 -308h-63q-136 0 -193 53t-40 172l14 91h134l-14 -91q-7 -54 16.5 -78
t82.5 -24h63v-123z" />
    <glyph glyph-name="Aringacute" unicode="&#x1fa;" 
d="M26 0l209 1600h416l209 -1600h-265l-36 367h-232l-36 -367h-265zM351 595h184l-35 352l-29 425h-56l-29 -425zM444 1671q-80 0 -137.5 57t-57.5 137q0 81 57.5 138t137.5 57t137 -57t57 -138q0 -80 -57 -137t-137 -57zM444 1806q25 0 42 17.5t17 41.5q0 26 -17 42.5
t-42 16.5t-42 -16.5t-17 -42.5q0 -24 17 -41.5t42 -17.5zM371 2145l180 265h169l-189 -265h-160z" />
    <glyph glyph-name="aringacute" unicode="&#x1fb;" horiz-adv-x="887" 
d="M315 -15q-124 0 -182.5 62.5t-71.5 209.5q-1 20 -1 46t1 46q6 79 34.5 136t88.5 101.5t159 83.5q52 22 101 37.5t102 30.5v180q0 52 -21 79t-81 27q-51 0 -72.5 -22t-24.5 -76q-1 -17 -1.5 -50.5t0 -68.5t1.5 -56h-251q-1 18 -2 64.5t0 81.5q5 112 40 183t111.5 104.5
t205.5 33.5q135 0 211.5 -37t108 -116.5t31.5 -207.5l-1 -857h-258v124h-34q-32 -71 -75 -105t-119 -34zM420 171q42 0 74 24t51 65v307q-36 -9 -70 -21.5t-66 -30.5q-53 -28 -72 -70.5t-22 -95.5v-36.5t1 -34.5q5 -52 31 -79.5t73 -27.5zM450 1271q-80 0 -137.5 57
t-57.5 137q0 81 57.5 138t137.5 57t137 -57t57 -138q0 -80 -57 -137t-137 -57zM450 1406q25 0 42 17.5t17 41.5q0 26 -17 42.5t-42 16.5t-42 -16.5t-17 -42.5q0 -24 17 -41.5t42 -17.5zM377 1745l180 265h169l-189 -265h-160z" />
    <glyph glyph-name="AEacute" unicode="&#x1fc;" horiz-adv-x="1263" 
d="M26 0l314 1600h879v-228h-374v-446h354v-228h-354v-470h374v-228h-632v367h-207l-72 -367h-282zM428 595h159v777h-50l-51 -492zM666 1680l180 265h169l-189 -265h-160z" />
    <glyph glyph-name="aeacute" unicode="&#x1fd;" horiz-adv-x="1332" 
d="M315 -15q-112 0 -178 62.5t-76 209.5q-1 20 -1 46t1 46q9 114 75 184.5t207 125.5q52 21 101 37.5t101 31.5v63.5v63v63.5q0 35 -8.5 58.5t-30.5 35.5t-62 12q-51 0 -72.5 -22t-24.5 -76q-1 -17 -1.5 -50.5t0 -68.5t1.5 -56h-251q-1 12 -2 38t-1 55.5t1 52.5
q5 112 40 183t111.5 104.5t205.5 33.5q77 0 133 -11.5t96 -37.5q43 26 101 37.5t131 11.5q183 0 265.5 -74.5t90.5 -246.5q1 -18 1.5 -54.5t0.5 -83.5t-1 -99t-3 -100h-466v-138.5v-139.5q0 -58 29 -82t85 -24q52 0 75 24t26 82q2 28 2 72.5t-2 98.5h251q2 -19 3 -64t-1 -80
q-8 -175 -89.5 -251t-263.5 -76q-126 0 -207.5 34t-120.5 108h-20q-34 -72 -101 -105.5t-151 -33.5zM420 171q27 0 56 13.5t49.5 56.5t21.5 130q0 42 -1 89t-1 96q-31 -9 -66.5 -21.5t-69.5 -31.5q-51 -27 -70 -64t-24 -90v-36t1 -35q5 -52 31 -79.5t73 -27.5zM800 740h217
q0 51 -0.5 104t-1.5 82q0 52 -25 75t-78 23q-56 0 -84 -23t-28 -75v-94.5v-91.5zM611 1280l180 265h169l-189 -265h-160z" />
    <glyph glyph-name="Oslashacute" unicode="&#x1fe;" horiz-adv-x="924" 
d="M462 -18q-200 0 -289 84.5t-93 281.5q-2 109 -3.5 223t-1.5 229.5t1.5 229.5t3.5 224q4 196 93 280t289 84q201 0 288 -84t93 -280q3 -111 5 -225t2 -229.5t-2 -229t-5 -222.5q-6 -197 -93 -281.5t-288 -84.5zM462 193q62 0 92 27t31 81q3 79 5 162.5t2 170.5v177
l-258 -353q0 -40 1.5 -79.5t2.5 -77.5q2 -54 33 -81t91 -27zM330 736l260 354q-1 53 -2 105.5t-3 105.5q-1 53 -32 79.5t-91 26.5t-91 -26.5t-33 -79.5q-3 -86 -5 -179t-3 -190t0 -196zM391 1680l180 265h169l-189 -265h-160z" />
    <glyph glyph-name="oslashacute" unicode="&#x1ff;" horiz-adv-x="897" 
d="M135 362l556 574l84 -99l-552 -568zM450 -18q-134 0 -213.5 36.5t-116.5 117t-44 212.5q-2 46 -3.5 111.5t-1.5 138t1 140t4 116.5q7 130 43.5 210.5t116 117t214.5 36.5t213.5 -37t115 -117.5t43.5 -209.5q2 -46 3 -112t1 -138.5t-1 -139.5t-3 -116q-7 -130 -43.5 -211
t-115 -118t-213.5 -37zM450 176q61 0 86.5 27t27.5 81q2 79 3.5 158t1.5 159t-1.5 159t-3.5 157q-2 54 -27.5 80.5t-86.5 26.5q-60 0 -87 -26.5t-29 -80.5q-2 -78 -3.5 -157.5t-1.5 -159t1.5 -159t3.5 -157.5q2 -54 29 -81t87 -27zM377 1280l180 265h169l-189 -265h-160z
" />
    <glyph glyph-name="uni0200" unicode="&#x200;" 
d="M26 0l209 1600h416l209 -1600h-265l-36 367h-232l-36 -367h-265zM351 595h184l-35 352l-29 425h-56l-29 -425zM485 1680l-174 265h169l173 -265h-168zM224 1680l-174 265h169l174 -265h-169z" />
    <glyph glyph-name="uni0201" unicode="&#x201;" horiz-adv-x="887" 
d="M315 -15q-124 0 -182.5 62.5t-71.5 209.5q-1 20 -1 46t1 46q6 79 34.5 136t88.5 101.5t159 83.5q52 22 101 37.5t102 30.5v180q0 52 -21 79t-81 27q-51 0 -72.5 -22t-24.5 -76q-1 -17 -1.5 -50.5t0 -68.5t1.5 -56h-251q-1 18 -2 64.5t0 81.5q5 112 40 183t111.5 104.5
t205.5 33.5q135 0 211.5 -37t108 -116.5t31.5 -207.5l-1 -857h-258v124h-34q-32 -71 -75 -105t-119 -34zM420 171q42 0 74 24t51 65v307q-36 -9 -70 -21.5t-66 -30.5q-53 -28 -72 -70.5t-22 -95.5v-36.5t1 -34.5q5 -52 31 -79.5t73 -27.5zM491 1280l-174 265h169l173 -265
h-168zM230 1280l-174 265h169l174 -265h-169z" />
    <glyph glyph-name="uni0202" unicode="&#x202;" 
d="M443 1950q141 0 206 -63t73 -211h-155q0 77 -28.5 110t-95.5 33q-66 0 -94.5 -33t-29.5 -110h-155q8 148 73 211t206 63zM26 0l209 1600h416l209 -1600h-265l-36 367h-232l-36 -367h-265zM351 595h184l-35 352l-29 425h-56l-29 -425z" />
    <glyph glyph-name="uni0203" unicode="&#x203;" horiz-adv-x="887" 
d="M449 1550q141 0 206 -63t73 -211h-155q0 77 -28.5 110t-95.5 33q-66 0 -94.5 -33t-29.5 -110h-155q8 148 73 211t206 63zM315 -15q-124 0 -182.5 62.5t-71.5 209.5q-1 20 -1 46t1 46q6 79 34.5 136t88.5 101.5t159 83.5q52 22 101 37.5t102 30.5v180q0 52 -21 79t-81 27
q-51 0 -72.5 -22t-24.5 -76q-1 -17 -1.5 -50.5t0 -68.5t1.5 -56h-251q-1 18 -2 64.5t0 81.5q5 112 40 183t111.5 104.5t205.5 33.5q135 0 211.5 -37t108 -116.5t31.5 -207.5l-1 -857h-258v124h-34q-32 -71 -75 -105t-119 -34zM420 171q42 0 74 24t51 65v307
q-36 -9 -70 -21.5t-66 -30.5q-53 -28 -72 -70.5t-22 -95.5v-36.5t1 -34.5q5 -52 31 -79.5t73 -27.5z" />
    <glyph glyph-name="uni0204" unicode="&#x204;" horiz-adv-x="763" 
d="M86 0v1600h632v-228h-373v-446h353v-228h-353v-470h373v-228h-632zM427 1680l-174 265h169l173 -265h-168zM166 1680l-174 265h169l174 -265h-169z" />
    <glyph glyph-name="uni0205" unicode="&#x205;" horiz-adv-x="860" 
d="M443 -18q-187 0 -272.5 76t-95.5 251q-2 46 -3 122.5t-1 163.5t1 165.5t3 126.5q12 179 96.5 255t268.5 76q183 0 265.5 -74.5t90.5 -246.5q1 -24 1.5 -80.5t0 -126.5t-3.5 -134h-464q0 -69 1.5 -137.5t2.5 -136.5q2 -58 27 -82t82 -24q52 0 74.5 24t25.5 82q2 28 2 72.5
t-2 98.5h251q2 -19 3 -64t-1 -80q-8 -175 -89.5 -251t-263.5 -76zM330 736h215v82.5t-0.5 68t-1.5 39.5q-3 52 -26.5 75t-76.5 23q-56 0 -80 -23t-26 -75q-1 -49 -2 -96zM478 1280l-174 265h169l173 -265h-168zM217 1280l-174 265h169l174 -265h-169z" />
    <glyph glyph-name="uni0206" unicode="&#x206;" horiz-adv-x="763" 
d="M385 1950q141 0 206 -63t73 -211h-155q0 77 -28.5 110t-95.5 33q-66 0 -94.5 -33t-29.5 -110h-155q8 148 73 211t206 63zM86 0v1600h632v-228h-373v-446h353v-228h-353v-470h373v-228h-632z" />
    <glyph glyph-name="uni0207" unicode="&#x207;" horiz-adv-x="860" 
d="M436 1550q141 0 205.5 -63t73.5 -211h-155q0 77 -29 110t-95 33t-95 -33t-29 -110h-155q8 148 72.5 211t206.5 63zM443 -18q-187 0 -272.5 76t-95.5 251q-2 46 -3 122.5t-1 163.5t1 165.5t3 126.5q12 179 96.5 255t268.5 76q183 0 265.5 -74.5t90.5 -246.5
q1 -24 1.5 -80.5t0 -126.5t-3.5 -134h-464q0 -69 1.5 -137.5t2.5 -136.5q2 -58 27 -82t82 -24q52 0 74.5 24t25.5 82q2 28 2 72.5t-2 98.5h251q2 -19 3 -64t-1 -80q-8 -175 -89.5 -251t-263.5 -76zM330 736h215v82.5t-0.5 68t-1.5 39.5q-3 52 -26.5 75t-76.5 23
q-56 0 -80 -23t-26 -75q-1 -49 -2 -96z" />
    <glyph glyph-name="uni0208" unicode="&#x208;" horiz-adv-x="431" 
d="M86 0v1600h259v-1600h-259zM257 1680l-174 265h169l173 -265h-168zM-4 1680l-174 265h169l174 -265h-169z" />
    <glyph glyph-name="uni0209" unicode="&#x209;" horiz-adv-x="436" 
d="M89 0v1200h258v-1200h-258zM260 1280l-174 265h169l173 -265h-168zM-1 1280l-174 265h169l174 -265h-169z" />
    <glyph glyph-name="uni020A" unicode="&#x20a;" horiz-adv-x="431" 
d="M216 1950q141 0 205.5 -63t73.5 -211h-155q-1 77 -29.5 110t-94.5 33q-67 0 -95.5 -33t-28.5 -110h-156q8 148 73 211t207 63zM86 0v1600h259v-1600h-259z" />
    <glyph glyph-name="uni020B" unicode="&#x20b;" horiz-adv-x="436" 
d="M218 1550q141 0 205.5 -63t73.5 -211h-155q0 77 -29 110t-95 33t-95 -33t-29 -110h-155q8 148 72.5 211t206.5 63zM89 0v1200h258v-1200h-258z" />
    <glyph glyph-name="uni020C" unicode="&#x20c;" horiz-adv-x="924" 
d="M462 -18q-200 0 -289 84.5t-93 281.5q-2 109 -3.5 223t-1.5 229.5t1.5 229.5t3.5 224q4 196 93 280t289 84q201 0 288 -84t93 -280q3 -111 5 -225t2 -229.5t-2 -229t-5 -222.5q-6 -197 -93 -281.5t-288 -84.5zM462 193q62 0 92 27t31 81q4 113 6 240.5t2 260t-2 259.5
t-6 240q-1 53 -32 79.5t-91 26.5t-91 -26.5t-33 -79.5q-4 -113 -6.5 -240t-2.5 -259.5t2.5 -260t6.5 -240.5q2 -54 33 -81t91 -27zM506 1680l-174 265h169l173 -265h-168zM245 1680l-174 265h169l174 -265h-169z" />
    <glyph glyph-name="uni020D" unicode="&#x20d;" horiz-adv-x="897" 
d="M450 -18q-134 0 -213.5 36.5t-116.5 117t-44 212.5q-2 46 -3.5 111.5t-1.5 138t1 140t4 116.5q7 130 43.5 210.5t116 117t214.5 36.5t213.5 -37t115 -117.5t43.5 -209.5q2 -46 3 -112t1 -138.5t-1 -139.5t-3 -116q-7 -130 -43.5 -211t-115 -118t-213.5 -37zM450 176
q61 0 86.5 27t27.5 81q2 79 3.5 158t1.5 159t-1.5 159t-3.5 157q-2 54 -27.5 80.5t-86.5 26.5q-60 0 -87 -26.5t-29 -80.5q-2 -78 -3.5 -157.5t-1.5 -159t1.5 -159t3.5 -157.5q2 -54 29 -81t87 -27zM491 1280l-174 265h169l173 -265h-168zM230 1280l-174 265h169l174 -265
h-169z" />
    <glyph glyph-name="uni020E" unicode="&#x20e;" horiz-adv-x="924" 
d="M464 1950q141 0 205.5 -63t73.5 -211h-155q0 77 -29 110t-95 33t-95 -33t-29 -110h-155q8 148 72.5 211t206.5 63zM462 -18q-200 0 -289 84.5t-93 281.5q-2 109 -3.5 223t-1.5 229.5t1.5 229.5t3.5 224q4 196 93 280t289 84q201 0 288 -84t93 -280q3 -111 5 -225
t2 -229.5t-2 -229t-5 -222.5q-6 -197 -93 -281.5t-288 -84.5zM462 193q62 0 92 27t31 81q4 113 6 240.5t2 260t-2 259.5t-6 240q-1 53 -32 79.5t-91 26.5t-91 -26.5t-33 -79.5q-4 -113 -6.5 -240t-2.5 -259.5t2.5 -260t6.5 -240.5q2 -54 33 -81t91 -27z" />
    <glyph glyph-name="uni020F" unicode="&#x20f;" horiz-adv-x="897" 
d="M450 1550q141 0 205.5 -63t73.5 -211h-155q-1 77 -29.5 110t-94.5 33q-67 0 -95.5 -33t-28.5 -110h-156q8 148 73 211t207 63zM450 -18q-134 0 -213.5 36.5t-116.5 117t-44 212.5q-2 46 -3.5 111.5t-1.5 138t1 140t4 116.5q7 130 43.5 210.5t116 117t214.5 36.5
t213.5 -37t115 -117.5t43.5 -209.5q2 -46 3 -112t1 -138.5t-1 -139.5t-3 -116q-7 -130 -43.5 -211t-115 -118t-213.5 -37zM450 176q61 0 86.5 27t27.5 81q2 79 3.5 158t1.5 159t-1.5 159t-3.5 157q-2 54 -27.5 80.5t-86.5 26.5q-60 0 -87 -26.5t-29 -80.5
q-2 -78 -3.5 -157.5t-1.5 -159t1.5 -159t3.5 -157.5q2 -54 29 -81t87 -27z" />
    <glyph glyph-name="uni0210" unicode="&#x210;" horiz-adv-x="889" 
d="M86 0v1600h351q202 0 291.5 -83t96.5 -274q2 -64 3 -115.5t0 -102t-3 -110.5q-4 -122 -41 -198.5t-116 -115.5l181 -601h-274l-150 558h-80v-558h-259zM345 786h91q65 0 96.5 29.5t34.5 86.5q3 56 4 116.5t0 121t-4 116.5q-3 57 -34.5 86.5t-95.5 29.5h-92v-586z
M480 1680l-174 265h169l173 -265h-168zM219 1680l-174 265h169l174 -265h-169z" />
    <glyph glyph-name="uni0211" unicode="&#x211;" horiz-adv-x="650" 
d="M89 0v1200h258v-141h46q11 83 52.5 115.5t106.5 32.5q24 0 46.5 -2t34.5 -3v-198h-77q-108 0 -152.5 -34t-56.5 -96v-874h-258zM398 1280l-174 265h169l173 -265h-168zM137 1280l-174 265h169l174 -265h-169z" />
    <glyph glyph-name="uni0212" unicode="&#x212;" horiz-adv-x="889" 
d="M438 1950q141 0 206 -63t73 -211h-155q0 77 -28.5 110t-95.5 33q-66 0 -94.5 -33t-29.5 -110h-155q8 148 73 211t206 63zM86 0v1600h351q202 0 291.5 -83t96.5 -274q2 -64 3 -115.5t0 -102t-3 -110.5q-4 -122 -41 -198.5t-116 -115.5l181 -601h-274l-150 558h-80v-558
h-259zM345 786h91q65 0 96.5 29.5t34.5 86.5q3 56 4 116.5t0 121t-4 116.5q-3 57 -34.5 86.5t-95.5 29.5h-92v-586z" />
    <glyph glyph-name="uni0213" unicode="&#x213;" horiz-adv-x="650" 
d="M357 1550q141 0 205.5 -63t73.5 -211h-155q-1 77 -29.5 110t-94.5 33q-67 0 -95.5 -33t-28.5 -110h-156q8 148 73 211t207 63zM89 0v1200h258v-141h46q11 83 52.5 115.5t106.5 32.5q24 0 46.5 -2t34.5 -3v-198h-77q-108 0 -152.5 -34t-56.5 -96v-874h-258z" />
    <glyph glyph-name="uni0214" unicode="&#x214;" horiz-adv-x="906" 
d="M454 -18q-203 0 -291 84.5t-91 281.5q-4 311 -4 626.5t4 625.5h259q-4 -207 -4.5 -428.5t0.5 -442.5t3 -428q0 -53 32 -80.5t92 -27.5q61 0 91.5 27.5t30.5 80.5q2 207 3.5 428t1 442.5t-4.5 428.5h258q5 -310 5 -625.5t-5 -626.5q-3 -197 -90 -281.5t-290 -84.5z
M496 1680l-174 265h169l173 -265h-168zM235 1680l-174 265h169l174 -265h-169z" />
    <glyph glyph-name="uni0215" unicode="&#x215;" horiz-adv-x="932" 
d="M334 -18q-116 0 -184.5 72.5t-68.5 240.5v905h258v-927q0 -53 23.5 -77.5t71.5 -24.5q43 0 88 25.5t63 69.5v934h259v-1200h-259v124h-36q-41 -76 -92 -109t-123 -33zM501 1280l-174 265h169l173 -265h-168zM240 1280l-174 265h169l174 -265h-169z" />
    <glyph glyph-name="uni0216" unicode="&#x216;" horiz-adv-x="906" 
d="M454 1950q141 0 205.5 -63t73.5 -211h-155q0 77 -29 110t-95 33t-95 -33t-29 -110h-155q8 148 72.5 211t206.5 63zM454 -18q-203 0 -291 84.5t-91 281.5q-4 311 -4 626.5t4 625.5h259q-4 -207 -4.5 -428.5t0.5 -442.5t3 -428q0 -53 32 -80.5t92 -27.5q61 0 91.5 27.5
t30.5 80.5q2 207 3.5 428t1 442.5t-4.5 428.5h258q5 -310 5 -625.5t-5 -626.5q-3 -197 -90 -281.5t-290 -84.5z" />
    <glyph glyph-name="uni0217" unicode="&#x217;" horiz-adv-x="932" 
d="M460 1550q141 0 205.5 -63t73.5 -211h-155q-1 77 -29.5 110t-94.5 33q-67 0 -95.5 -33t-28.5 -110h-156q8 148 73 211t207 63zM334 -18q-116 0 -184.5 72.5t-68.5 240.5v905h258v-927q0 -53 23.5 -77.5t71.5 -24.5q43 0 88 25.5t63 69.5v934h259v-1200h-259v124h-36
q-41 -76 -92 -109t-123 -33z" />
    <glyph glyph-name="uni0218" unicode="&#x218;" horiz-adv-x="882" 
d="M442 -18q-199 0 -284 85t-94 282q-1 39 -1 81t2 83.5t6 81.5h243q-4 -77 -4.5 -152.5t4.5 -140.5q5 -54 35.5 -81.5t92.5 -27.5q61 0 89 27.5t33 81.5q4 40 5.5 76t0 73t-5.5 78q-3 50 -24.5 88t-71.5 51l-149 38q-97 25 -153 72.5t-80.5 119.5t-27.5 170q-1 49 -1 94.5
t1 90.5q5 131 43.5 211.5t121 117t219.5 36.5q193 0 279.5 -84.5t94.5 -280.5q2 -46 1 -113t-4 -129h-248q3 72 4 144.5t-2 144.5q-2 53 -34.5 80t-90.5 27q-62 0 -91 -27t-35 -80q-5 -58 -5 -116t5 -116q5 -52 26.5 -88t75.5 -49l131 -31q103 -25 162 -74.5t84.5 -123.5
t28.5 -173q1 -33 1 -62.5t-0.5 -58t-2.5 -59.5q-8 -197 -93.5 -282t-286.5 -85zM356 -431l64 147h-95v204h246v-180l-88 -171h-127z" />
    <glyph glyph-name="uni0219" unicode="&#x219;" horiz-adv-x="817" 
d="M402 -18q-177 0 -253.5 76t-83.5 251q-1 35 -0.5 80t2.5 63h226q-2 -53 -2 -97.5t1 -72.5q3 -58 30.5 -82t79.5 -24q63 0 91 24t29 82v35.5v16.5v32q0 42 -15 67.5t-54 37.5l-130 37q-85 26 -144 63.5t-89.5 96.5t-31.5 147v36v35q1 178 80.5 255t275.5 77
q179 0 253.5 -74.5t81.5 -246.5q2 -34 1 -80t-3 -66h-234q1 22 1.5 57t0 68t-1.5 50q-3 54 -24 76t-75 22q-57 0 -79.5 -22t-24.5 -76q-1 -25 -1.5 -39t-0.5 -50q0 -46 14 -77.5t63 -44.5l115 -29q129 -32 194.5 -101.5t65.5 -204.5v-38.5v-38.5q-1 -172 -83 -246.5
t-275 -74.5zM321 -431l64 147h-95v204h246v-180l-88 -171h-127z" />
    <glyph glyph-name="uni021A" unicode="&#x21a;" horiz-adv-x="769" 
d="M255 0v1372h-243v228h745v-228h-244v-1372h-258zM300 -431l64 147h-95v204h246v-180l-88 -171h-127z" />
    <glyph glyph-name="uni021B" unicode="&#x21b;" horiz-adv-x="644" 
d="M523 -18q-206 0 -294.5 76t-88.5 251v695h-106v196h108v340h260v-340h196v-196h-200v-723q0 -59 24 -83t102 -24q24 0 45.5 1t48.5 2v-185q-21 -6 -44.5 -8t-50.5 -2zM308 -431l64 147h-95v204h246v-180l-88 -171h-127z" />
    <glyph glyph-name="uni022A" unicode="&#x22a;" horiz-adv-x="924" 
d="M462 -18q-200 0 -289 84.5t-93 281.5q-2 109 -3.5 223t-1.5 229.5t1.5 229.5t3.5 224q4 196 93 280t289 84q201 0 288 -84t93 -280q3 -111 5 -225t2 -229.5t-2 -229t-5 -222.5q-6 -197 -93 -281.5t-288 -84.5zM462 193q62 0 92 27t31 81q4 113 6 240.5t2 260t-2 259.5
t-6 240q-1 53 -32 79.5t-91 26.5t-91 -26.5t-33 -79.5q-4 -113 -6.5 -240t-2.5 -259.5t2.5 -260t6.5 -240.5q2 -54 33 -81t91 -27zM513 1710v176h176v-176h-176zM238 1710v176h175v-176h-175zM154 2041h614v-120h-614v120z" />
    <glyph glyph-name="uni022B" unicode="&#x22b;" horiz-adv-x="897" 
d="M450 -18q-134 0 -213.5 36.5t-116.5 117t-44 212.5q-2 46 -3.5 111.5t-1.5 138t1 140t4 116.5q7 130 43.5 210.5t116 117t214.5 36.5t213.5 -37t115 -117.5t43.5 -209.5q2 -46 3 -112t1 -138.5t-1 -139.5t-3 -116q-7 -130 -43.5 -211t-115 -118t-213.5 -37zM450 176
q61 0 86.5 27t27.5 81q2 79 3.5 158t1.5 159t-1.5 159t-3.5 157q-2 54 -27.5 80.5t-86.5 26.5q-60 0 -87 -26.5t-29 -80.5q-2 -78 -3.5 -157.5t-1.5 -159t1.5 -159t3.5 -157.5q2 -54 29 -81t87 -27zM499 1310v176h176v-176h-176zM224 1310v176h175v-176h-175zM140 1641h614
v-120h-614v120z" />
    <glyph glyph-name="uni022C" unicode="&#x22c;" horiz-adv-x="924" 
d="M462 -18q-200 0 -289 84.5t-93 281.5q-2 109 -3.5 223t-1.5 229.5t1.5 229.5t3.5 224q4 196 93 280t289 84q201 0 288 -84t93 -280q3 -111 5 -225t2 -229.5t-2 -229t-5 -222.5q-6 -197 -93 -281.5t-288 -84.5zM462 193q62 0 92 27t31 81q4 113 6 240.5t2 260t-2 259.5
t-6 240q-1 53 -32 79.5t-91 26.5t-91 -26.5t-33 -79.5q-4 -113 -6.5 -240t-2.5 -259.5t2.5 -260t6.5 -240.5q2 -54 33 -81t91 -27zM604 1879h100q-5 -103 -40.5 -151.5t-102.5 -48.5q-41 0 -65 13.5t-40.5 31t-34 31t-44.5 13.5q-30 0 -39.5 -20.5t-12.5 -57.5h-100
q7 112 45 161t105 49q41 0 66.5 -13t42.5 -30.5t34 -31t42 -13.5t33.5 17t10.5 50zM153 2088h614v-120h-614v120z" />
    <glyph glyph-name="uni022D" unicode="&#x22d;" horiz-adv-x="897" 
d="M450 -18q-134 0 -213.5 36.5t-116.5 117t-44 212.5q-2 46 -3.5 111.5t-1.5 138t1 140t4 116.5q7 130 43.5 210.5t116 117t214.5 36.5t213.5 -37t115 -117.5t43.5 -209.5q2 -46 3 -112t1 -138.5t-1 -139.5t-3 -116q-7 -130 -43.5 -211t-115 -118t-213.5 -37zM450 176
q61 0 86.5 27t27.5 81q2 79 3.5 158t1.5 159t-1.5 159t-3.5 157q-2 54 -27.5 80.5t-86.5 26.5q-60 0 -87 -26.5t-29 -80.5q-2 -78 -3.5 -157.5t-1.5 -159t1.5 -159t3.5 -157.5q2 -54 29 -81t87 -27zM590 1479h100q-5 -103 -40.5 -151.5t-102.5 -48.5q-41 0 -65 13.5
t-40.5 31t-34 31t-44.5 13.5q-30 0 -39.5 -20.5t-12.5 -57.5h-100q7 112 45 161t105 49q41 0 66.5 -13t42.5 -30.5t34 -31t42 -13.5t33.5 17t10.5 50zM139 1688h614v-120h-614v120z" />
    <glyph glyph-name="uni0230" unicode="&#x230;" horiz-adv-x="924" 
d="M462 -18q-200 0 -289 84.5t-93 281.5q-2 109 -3.5 223t-1.5 229.5t1.5 229.5t3.5 224q4 196 93 280t289 84q201 0 288 -84t93 -280q3 -111 5 -225t2 -229.5t-2 -229t-5 -222.5q-6 -197 -93 -281.5t-288 -84.5zM462 193q62 0 92 27t31 81q4 113 6 240.5t2 260t-2 259.5
t-6 240q-1 53 -32 79.5t-91 26.5t-91 -26.5t-33 -79.5q-4 -113 -6.5 -240t-2.5 -259.5t2.5 -260t6.5 -240.5q2 -54 33 -81t91 -27zM375 1680v176h176v-176h-176zM154 2041h614v-120h-614v120z" />
    <glyph glyph-name="uni0231" unicode="&#x231;" horiz-adv-x="897" 
d="M450 -18q-134 0 -213.5 36.5t-116.5 117t-44 212.5q-2 46 -3.5 111.5t-1.5 138t1 140t4 116.5q7 130 43.5 210.5t116 117t214.5 36.5t213.5 -37t115 -117.5t43.5 -209.5q2 -46 3 -112t1 -138.5t-1 -139.5t-3 -116q-7 -130 -43.5 -211t-115 -118t-213.5 -37zM450 176
q61 0 86.5 27t27.5 81q2 79 3.5 158t1.5 159t-1.5 159t-3.5 157q-2 54 -27.5 80.5t-86.5 26.5q-60 0 -87 -26.5t-29 -80.5q-2 -78 -3.5 -157.5t-1.5 -159t1.5 -159t3.5 -157.5q2 -54 29 -81t87 -27zM361 1280v176h176v-176h-176zM140 1641h614v-120h-614v120z" />
    <glyph glyph-name="uni0232" unicode="&#x232;" horiz-adv-x="860" 
d="M301 0v390v2l-280 1208h264l84 -404l36 -467h51l35 467l84 404h264l-280 -1209v-2v-389h-258zM112 1784h614v-120h-614v120z" />
    <glyph glyph-name="uni0233" unicode="&#x233;" horiz-adv-x="832" 
d="M210 -418q-32 0 -71.5 3.5t-73.5 9.5v192q26 -1 71 -3t74 -2q78 0 108.5 24.5t37.5 82.5l15 111h-138l-205 1200h262l63 -553l49 -456h64l26 456l51 553h262l-191 -1291q-17 -116 -59.5 -188t-124.5 -105.5t-220 -33.5zM108 1384h614v-120h-614v120z" />
    <glyph glyph-name="uni0237" unicode="&#x237;" horiz-adv-x="439" 
d="M-21 -422q-32 0 -69.5 4t-70.5 9v193q26 -2 68 -3.5t71 -1.5q55 0 84 26.5t29 80.5v1314h258v-1294q0 -175 -91 -251.5t-279 -76.5z" />
    <glyph glyph-name="uni0259" unicode="&#x259;" horiz-adv-x="860" 
d="M417 1218q188 0 273.5 -76t93.5 -251q2 -46 3.5 -122.5t1.5 -163.5t-1.5 -165t-3.5 -127q-11 -178 -95.5 -254.5t-268.5 -76.5q-183 0 -265.5 74.5t-91.5 246.5q-1 24 -1.5 80.5t0 126.5t3.5 134h465q0 70 -1 138t-3 136q-1 58 -26.5 82t-82.5 24q-52 0 -74.5 -24
t-25.5 -82q-1 -28 -1 -72t1 -99h-252q-1 20 -2 64.5t0 79.5q9 175 90.5 251t263.5 76zM530 464h-215q-1 -43 -0.5 -82.5t1 -68t1.5 -39.5q3 -52 27 -75t76 -23q56 0 80.5 23t25.5 75q2 49 2.5 96t1.5 94z" />
    <glyph glyph-name="uni02B9" unicode="&#x2b9;" horiz-adv-x="387" 
d="M132 1071l-46 268v261h215v-261l-46 -268h-123z" />
    <glyph glyph-name="uni02BA" unicode="&#x2ba;" horiz-adv-x="745" 
d="M132 1071l-46 268v261h215v-261l-46 -268h-123zM490 1071l-46 268v261h215v-261l-46 -268h-123z" />
    <glyph glyph-name="uni02BB" unicode="&#x2bb;" horiz-adv-x="419" 
d="M302 1638l-64 -146h94v-204h-246v180l89 170h127z" />
    <glyph glyph-name="uni02BC" unicode="&#x2bc;" horiz-adv-x="387" 
d="M132 1071l-46 268v261h215v-261l-46 -268h-123z" />
    <glyph glyph-name="uni02BE" unicode="&#x2be;" horiz-adv-x="428" 
d="M86 1108v137q50 0 84.5 34.5t34.5 83.5q0 50 -34.5 84.5t-84.5 34.5v137q71 0 129 -34.5t92.5 -92.5t34.5 -129q0 -70 -34.5 -128t-92.5 -92.5t-129 -34.5z" />
    <glyph glyph-name="uni02BF" unicode="&#x2bf;" horiz-adv-x="428" 
d="M342 1108q-71 0 -129 34.5t-92.5 92.5t-34.5 128q0 71 34.5 129t92.5 92.5t129 34.5v-137q-50 0 -84.5 -34.5t-34.5 -84.5q0 -49 34.5 -83.5t84.5 -34.5v-137z" />
    <glyph glyph-name="circumflex" unicode="&#x2c6;" horiz-adv-x="635" 
d="M86 1282l156 265h151l155 -265h-168l-62 119l-63 -119h-169z" />
    <glyph glyph-name="caron" unicode="&#x2c7;" horiz-adv-x="618" 
d="M242 1282l-156 265h152l71 -137l71 137h151l-155 -265h-134z" />
    <glyph glyph-name="uni02C8" unicode="&#x2c8;" horiz-adv-x="389" 
d="M86 1600h217v-744h-217v744z" />
    <glyph glyph-name="uni02C9" unicode="&#x2c9;" horiz-adv-x="880" 
d="M119 1384h614v-120h-614v120z" />
    <glyph glyph-name="uni02CA" unicode="&#x2ca;" horiz-adv-x="589" 
d="M213 1071h-127l202 529h214z" />
    <glyph glyph-name="uni02CB" unicode="&#x2cb;" horiz-adv-x="589" 
d="M376 1071l-290 529h215l201 -529h-126z" />
    <glyph glyph-name="uni02CC" unicode="&#x2cc;" horiz-adv-x="389" 
d="M86 376h217v-776h-217v776z" />
    <glyph glyph-name="breve" unicode="&#x2d8;" horiz-adv-x="731" 
d="M366 1271q-142 0 -207 63.5t-73 210.5h156q0 -76 28.5 -109t95.5 -33q66 0 94.5 33t29.5 109h155q-9 -147 -73.5 -210.5t-205.5 -63.5z" />
    <glyph glyph-name="dotaccent" unicode="&#x2d9;" horiz-adv-x="372" 
d="M105 1280v176h176v-176h-176z" />
    <glyph glyph-name="ring" unicode="&#x2da;" horiz-adv-x="683" 
d="M266 1271q-80 0 -137.5 57t-57.5 137q0 81 57.5 138t137.5 57t137 -57t57 -138q0 -80 -57 -137t-137 -57zM266 1406q25 0 42 17.5t17 41.5q0 26 -17 42.5t-42 16.5t-42 -16.5t-17 -42.5q0 -24 17 -41.5t42 -17.5z" />
    <glyph glyph-name="ogonek" unicode="&#x2db;" horiz-adv-x="441" 
d="M375 -316h-63q-136 0 -193 53t-40 172l14 91h134l-14 -91q-7 -54 16.5 -78t82.5 -24h63v-123z" />
    <glyph glyph-name="tilde" unicode="&#x2dc;" horiz-adv-x="764" 
d="M493 1471h100q-5 -103 -40.5 -151.5t-102.5 -48.5q-41 0 -65 13.5t-40.5 31t-34 31t-44.5 13.5q-30 0 -39.5 -20.5t-12.5 -57.5h-100q7 112 45 161t105 49q41 0 66.5 -13t42.5 -30.5t34 -31t42 -13.5t33.5 17t10.5 50z" />
    <glyph glyph-name="hungarumlaut" unicode="&#x2dd;" horiz-adv-x="789" 
d="M70 1282l212 265h178l-212 -265h-178zM341 1282l212 265h178l-212 -265h-178z" />
    <glyph glyph-name="gravecomb" unicode="&#x300;" horiz-adv-x="0" 
d="M261 1280l-172 265h169l164 -265h-161z" />
    <glyph glyph-name="acutecomb" unicode="&#x301;" horiz-adv-x="0" 
d="M78 1280l180 265h169l-189 -265h-160z" />
    <glyph glyph-name="uni0302" unicode="&#x302;" horiz-adv-x="0" 
d="M86 1282l156 265h151l155 -265h-168l-62 119l-63 -119h-169z" />
    <glyph glyph-name="tildecomb" unicode="&#x303;" horiz-adv-x="0" 
d="M493 1471h100q-5 -103 -40.5 -151.5t-102.5 -48.5q-41 0 -65 13.5t-40.5 31t-34 31t-44.5 13.5q-30 0 -39.5 -20.5t-12.5 -57.5h-100q7 112 45 161t105 49q41 0 66.5 -13t42.5 -30.5t34 -31t42 -13.5t33.5 17t10.5 50z" />
    <glyph glyph-name="uni0304" unicode="&#x304;" horiz-adv-x="0" 
d="M119 1384h614v-120h-614v120z" />
    <glyph glyph-name="uni0306" unicode="&#x306;" horiz-adv-x="0" 
d="M366 1271q-142 0 -207 63.5t-73 210.5h156q0 -76 28.5 -109t95.5 -33q66 0 94.5 33t29.5 109h155q-9 -147 -73.5 -210.5t-205.5 -63.5z" />
    <glyph glyph-name="uni0307" unicode="&#x307;" horiz-adv-x="0" 
d="M105 1280v176h176v-176h-176z" />
    <glyph glyph-name="uni0308" unicode="&#x308;" horiz-adv-x="0" 
d="M397 1310v176h176v-176h-176zM122 1310v176h175v-176h-175z" />
    <glyph glyph-name="hookabovecomb" unicode="&#x309;" horiz-adv-x="0" 
d="M220 1254l14 65q13 57 -6.5 77t-90.5 20h-87v123h87q133 0 195 -52.5t35 -167.5l-14 -65h-133z" />
    <glyph glyph-name="uni030A" unicode="&#x30a;" horiz-adv-x="0" 
d="M266 1271q-80 0 -137.5 57t-57.5 137q0 81 57.5 138t137.5 57t137 -57t57 -138q0 -80 -57 -137t-137 -57zM266 1406q25 0 42 17.5t17 41.5q0 26 -17 42.5t-42 16.5t-42 -16.5t-17 -42.5q0 -24 17 -41.5t42 -17.5z" />
    <glyph glyph-name="uni030B" unicode="&#x30b;" horiz-adv-x="0" 
d="M70 1282l212 265h178l-212 -265h-178zM341 1282l212 265h178l-212 -265h-178z" />
    <glyph glyph-name="uni030C" unicode="&#x30c;" horiz-adv-x="0" 
d="M242 1282l-156 265h152l71 -137l71 137h151l-155 -265h-134z" />
    <glyph glyph-name="uni030F" unicode="&#x30f;" horiz-adv-x="0" 
d="M521 1280l-174 265h169l173 -265h-168zM260 1280l-174 265h169l174 -265h-169z" />
    <glyph glyph-name="uni0311" unicode="&#x311;" horiz-adv-x="0" 
d="M366 1550q141 0 205.5 -63t73.5 -211h-155q-1 77 -29.5 110t-94.5 33q-67 0 -95.5 -33t-28.5 -110h-156q8 148 73 211t207 63z" />
    <glyph glyph-name="uni0312" unicode="&#x312;" horiz-adv-x="0" 
d="M302 1638l-64 -146h94v-204h-246v180l89 170h127z" />
    <glyph glyph-name="uni031B" unicode="&#x31b;" horiz-adv-x="0" 
d="M195 1066q-7 0 -18 0.5t-27 3.5l-1 127h30h16q58 0 83 35t30 116q1 20 1.5 57t0 74t-1.5 56h143q1 -19 1.5 -56t0 -74t-1.5 -57q-9 -146 -70 -214t-186 -68z" />
    <glyph glyph-name="dotbelowcomb" unicode="&#x323;" horiz-adv-x="0" 
d="M90 -256v176h176v-176h-176z" />
    <glyph glyph-name="uni0324" unicode="&#x324;" horiz-adv-x="0" 
d="M397 -226v176h176v-176h-176zM122 -226v176h175v-176h-175z" />
    <glyph glyph-name="uni0326" unicode="&#x326;" horiz-adv-x="0" 
d="M117 -431l64 147h-95v204h246v-180l-88 -171h-127z" />
    <glyph glyph-name="uni0327" unicode="&#x327;" horiz-adv-x="0" 
d="M75 -316v123h62q59 0 83.5 24t16.5 78l-14 91h134l14 -91q16 -119 -40.5 -172t-193.5 -53h-62z" />
    <glyph glyph-name="uni0328" unicode="&#x328;" horiz-adv-x="0" 
d="M375 -316h-63q-136 0 -193 53t-40 172l14 91h134l-14 -91q-7 -54 16.5 -78t82.5 -24h63v-123z" />
    <glyph glyph-name="uni032E" unicode="&#x32e;" horiz-adv-x="0" 
d="M366 -355q-142 0 -207 63.5t-73 210.5h156q0 -76 28.5 -109t95.5 -33q66 0 94.5 33t29.5 109h155q-9 -147 -73.5 -210.5t-205.5 -63.5z" />
    <glyph glyph-name="uni0331" unicode="&#x331;" horiz-adv-x="0" 
d="M119 -106h614v-120h-614v120z" />
    <glyph glyph-name="uni0335" unicode="&#x335;" horiz-adv-x="0" 
d="M86 791h505v-132h-505v132z" />
    <glyph glyph-name="pi" unicode="&#x3c0;" horiz-adv-x="1321" 
d="M1107 -8q-138 0 -222.5 33t-123 105.5t-40.5 188.5v650h-160v-969h-258v969h-183v228h1058v-228h-199v-678q2 -59 26 -83t102 -24q25 0 46 1.5t48 1.5v-185q-21 -6 -44.5 -8t-49.5 -2z" />
    <glyph glyph-name="uni1E08" unicode="&#x1e08;" horiz-adv-x="910" 
d="M460 -19q-204 0 -290.5 85t-90.5 282q-2 98 -3 214t-1 238t1 238.5t3 215.5q3 170 92.5 267t288.5 97q196 0 284 -84.5t93 -280.5q1 -35 1 -78t-1 -86.5t-2 -77.5h-258q1 41 2 92.5t1 103.5t-1 93q-1 53 -31.5 80t-87.5 27q-59 0 -90 -27t-33 -80q-4 -116 -5.5 -243
t-1.5 -257t1.5 -256.5t5.5 -242.5q2 -54 33 -81.5t90 -27.5q62 0 94 27.5t33 81.5q1 41 1.5 94t0 106t-1.5 93h258q2 -57 2 -122.5t-2 -123.5q-5 -197 -94.5 -282t-290.5 -85zM238 -299v123h62q59 0 83.5 24t16.5 78l-14 91h134l14 -91q16 -119 -40.5 -172t-193.5 -53h-62z
M380 1680l180 265h169l-189 -265h-160z" />
    <glyph glyph-name="uni1E09" unicode="&#x1e09;" horiz-adv-x="858" 
d="M543 751q1 22 1.5 57t0 68t-1.5 50q-2 54 -26 76t-78 22q-55 0 -79.5 -22t-26.5 -76q-2 -80 -3 -161t-1 -162t1 -161t3 -160q2 -58 27.5 -82t81.5 -24q52 0 75.5 24t25.5 82q2 28 2 72.5t-2 97.5h251q2 -18 3 -63t-1 -80q-8 -175 -90 -251t-264 -76q-187 0 -272 76
t-95 251q-2 46 -3 122.5t-1 163.5t1 165.5t3 126.5q12 179 96 255t268 76t267 -74.5t90 -246.5q2 -34 1 -80t-3 -66h-251zM211 -299v123h62q59 0 83.5 24t16.5 78l-14 91h134l14 -91q16 -119 -40.5 -172t-193.5 -53h-62zM367 1280l180 265h169l-189 -265h-160z" />
    <glyph glyph-name="uni1E0C" unicode="&#x1e0c;" horiz-adv-x="922" 
d="M86 0v1600h369q203 0 294 -87t94 -287q3 -152 4 -288.5t0 -273t-4 -288.5q-3 -201 -94 -288.5t-295 -87.5h-368zM345 228h109q65 0 97.5 30t33.5 87q3 115 4.5 228.5t1.5 227.5t-1.5 228t-4.5 227q-1 57 -33.5 86.5t-96.5 29.5h-110v-1144zM344 -256v176h176v-176h-176z
" />
    <glyph glyph-name="uni1E0D" unicode="&#x1e0d;" horiz-adv-x="927" 
d="M324 -18q-117 0 -179 72.5t-70 240.5q-2 56 -3 136t-1 167t1 168t3 140q8 168 72 240t180 72q89 0 132.5 -36.5t82.5 -105.5h38v524h258v-1600h-258v124h-38q-39 -68 -84.5 -105t-133.5 -37zM428 171q45 0 89 25t63 70v668q-19 45 -63 70t-89 25q-48 0 -70 -24.5
t-25 -77.5q-4 -99 -5.5 -217.5t0 -233.5t5.5 -203q3 -53 25 -77.5t70 -24.5zM401 -256v176h176v-176h-176z" />
    <glyph glyph-name="uni1E0E" unicode="&#x1e0e;" horiz-adv-x="922" 
d="M86 0v1600h369q203 0 294 -87t94 -287q3 -152 4 -288.5t0 -273t-4 -288.5q-3 -201 -94 -288.5t-295 -87.5h-368zM345 228h109q65 0 97.5 30t33.5 87q3 115 4.5 228.5t1.5 227.5t-1.5 228t-4.5 227q-1 57 -33.5 86.5t-96.5 29.5h-110v-1144zM111 -106h614v-120h-614v120z
" />
    <glyph glyph-name="uni1E0F" unicode="&#x1e0f;" horiz-adv-x="927" 
d="M324 -18q-117 0 -179 72.5t-70 240.5q-2 56 -3 136t-1 167t1 168t3 140q8 168 72 240t180 72q89 0 132.5 -36.5t82.5 -105.5h38v524h258v-1600h-258v124h-38q-39 -68 -84.5 -105t-133.5 -37zM428 171q45 0 89 25t63 70v668q-19 45 -63 70t-89 25q-48 0 -70 -24.5
t-25 -77.5q-4 -99 -5.5 -217.5t0 -233.5t5.5 -203q3 -53 25 -77.5t70 -24.5zM168 -106h614v-120h-614v120z" />
    <glyph glyph-name="uni1E14" unicode="&#x1e14;" horiz-adv-x="763" 
d="M86 0v1600h632v-228h-373v-446h353v-228h-353v-470h373v-228h-632zM76 1784h614v-120h-614v120zM279 1887l-172 265h169l164 -265h-161z" />
    <glyph glyph-name="uni1E15" unicode="&#x1e15;" horiz-adv-x="860" 
d="M443 -18q-187 0 -272.5 76t-95.5 251q-2 46 -3 122.5t-1 163.5t1 165.5t3 126.5q12 179 96.5 255t268.5 76q183 0 265.5 -74.5t90.5 -246.5q1 -24 1.5 -80.5t0 -126.5t-3.5 -134h-464q0 -69 1.5 -137.5t2.5 -136.5q2 -58 27 -82t82 -24q52 0 74.5 24t25.5 82q2 28 2 72.5
t-2 98.5h251q2 -19 3 -64t-1 -80q-8 -175 -89.5 -251t-263.5 -76zM330 736h215v82.5t-0.5 68t-1.5 39.5q-3 52 -26.5 75t-76.5 23q-56 0 -80 -23t-26 -75q-1 -49 -2 -96zM127 1384h614v-120h-614v120zM329 1487l-172 265h169l164 -265h-161z" />
    <glyph glyph-name="uni1E16" unicode="&#x1e16;" horiz-adv-x="763" 
d="M86 0v1600h632v-228h-373v-446h353v-228h-353v-470h373v-228h-632zM76 1784h614v-120h-614v120zM313 1887l180 265h169l-189 -265h-160z" />
    <glyph glyph-name="uni1E17" unicode="&#x1e17;" horiz-adv-x="860" 
d="M443 -18q-187 0 -272.5 76t-95.5 251q-2 46 -3 122.5t-1 163.5t1 165.5t3 126.5q12 179 96.5 255t268.5 76q183 0 265.5 -74.5t90.5 -246.5q1 -24 1.5 -80.5t0 -126.5t-3.5 -134h-464q0 -69 1.5 -137.5t2.5 -136.5q2 -58 27 -82t82 -24q52 0 74.5 24t25.5 82q2 28 2 72.5
t-2 98.5h251q2 -19 3 -64t-1 -80q-8 -175 -89.5 -251t-263.5 -76zM330 736h215v82.5t-0.5 68t-1.5 39.5q-3 52 -26.5 75t-76.5 23q-56 0 -80 -23t-26 -75q-1 -49 -2 -96zM127 1384h614v-120h-614v120zM363 1487l180 265h169l-189 -265h-160z" />
    <glyph glyph-name="uni1E1C" unicode="&#x1e1c;" horiz-adv-x="763" 
d="M86 0v1600h632v-228h-373v-446h353v-228h-353v-470h373v-228h-632zM171 -299v123h62q59 0 83.5 24t16.5 78l-14 91h134l14 -91q16 -119 -40.5 -172t-193.5 -53h-62zM386 1671q-142 0 -207 63.5t-73 210.5h156q0 -76 28.5 -109t95.5 -33q66 0 94.5 33t29.5 109h155
q-9 -147 -73.5 -210.5t-205.5 -63.5z" />
    <glyph glyph-name="uni1E1D" unicode="&#x1e1d;" horiz-adv-x="860" 
d="M443 -18q-187 0 -272.5 76t-95.5 251q-2 46 -3 122.5t-1 163.5t1 165.5t3 126.5q12 179 96.5 255t268.5 76q183 0 265.5 -74.5t90.5 -246.5q1 -24 1.5 -80.5t0 -126.5t-3.5 -134h-464q0 -69 1.5 -137.5t2.5 -136.5q2 -58 27 -82t82 -24q52 0 74.5 24t25.5 82q2 28 2 72.5
t-2 98.5h251q2 -19 3 -64t-1 -80q-8 -175 -89.5 -251t-263.5 -76zM330 736h215v82.5t-0.5 68t-1.5 39.5q-3 52 -26.5 75t-76.5 23q-56 0 -80 -23t-26 -75q-1 -49 -2 -96zM222 -299v123h62q59 0 83.5 24t16.5 78l-14 91h134l14 -91q16 -119 -40.5 -172t-193.5 -53h-62z
M436 1271q-142 0 -207 63.5t-73 210.5h156q0 -76 28.5 -109t95.5 -33q66 0 94.5 33t29.5 109h155q-9 -147 -73.5 -210.5t-205.5 -63.5z" />
    <glyph glyph-name="uni1E20" unicode="&#x1e20;" horiz-adv-x="914" 
d="M463 -18q-136 0 -218.5 37t-120.5 118t-43 212q-3 97 -4.5 212t-1.5 234.5t1.5 233.5t4.5 209q5 138 44.5 222t121.5 121t216 37q190 0 277.5 -84.5t98.5 -280.5q3 -54 3 -120.5t-3 -121.5h-258q3 63 3 145t-3 144q-3 53 -33 80t-85 27q-60 0 -90.5 -27t-33.5 -80
q-5 -115 -7.5 -242t-2.5 -257.5t2.5 -257t7.5 -241.5q3 -54 33.5 -81.5t90.5 -27.5t94 27.5t37 81.5q2 31 2.5 72.5t0 83.5t-2.5 72h-115v225h367q4 -87 3 -194.5t-5 -211.5q-9 -197 -97.5 -282t-283.5 -85zM146 1784h614v-120h-614v120z" />
    <glyph glyph-name="uni1E21" unicode="&#x1e21;" horiz-adv-x="934" 
d="M429 -384q-168 0 -253.5 46t-102.5 134q-3 12 -4.5 30.5t0.5 36.5q6 48 39.5 84.5t91.5 43.5v38q-52 9 -83 38t-38 75q-1 13 -1 27t1 30q5 43 43.5 70t97.5 35v38q-79 36 -117 107t-46 187q-1 40 -2 71.5t-1 59.5t1 57t2 63q7 115 44 188t116.5 108t212.5 35
q125 0 198.5 -31.5t114.5 -100.5h38q7 60 43 87t108 27v-196h-32q-48 0 -75 -24t-27 -85v-71v-46.5t0.5 -42.5t0 -45t-2.5 -54q-8 -120 -45.5 -193.5t-115.5 -106t-207 -32.5q-91 0 -125 -14t-34 -47v-7q0 -21 9 -33.5t41 -18.5t104 -7q196 -3 287 -62t108 -175
q4 -19 4 -39.5t-4 -46.5q-8 -82 -53.5 -134.5t-129 -78t-206.5 -25.5zM435 -206q53 0 89.5 9t57.5 26.5t28 43.5q5 16 4 29.5t-5 27.5q-8 27 -29.5 43t-57.5 23.5t-87 8.5q-78 1 -115.5 -17t-47.5 -58q-4 -14 -3.5 -29t3.5 -28q6 -27 25 -44.5t53 -26t85 -8.5zM427 498
q66 0 89 27t26 75q2 29 3.5 71t1.5 88t-1.5 88.5t-3.5 73.5q-3 53 -27.5 78t-87.5 25t-89 -25.5t-28 -80.5q-2 -50 -3 -93.5t-1 -82.5t1 -73t3 -63q4 -47 25.5 -77.5t91.5 -30.5zM121 1384h614v-120h-614v120z" />
    <glyph glyph-name="uni1E24" unicode="&#x1e24;" horiz-adv-x="910" 
d="M86 0v1600h259v-674h221v674h258v-1600h-258v698h-221v-698h-259zM368 -256v176h176v-176h-176z" />
    <glyph glyph-name="uni1E25" unicode="&#x1e25;" horiz-adv-x="939" 
d="M89 0v1600h258v-524h46q39 69 83 105.5t132 36.5q117 0 182 -72t65 -240v-906h-258v927q0 53 -24.5 77.5t-73.5 24.5q-44 0 -89 -25t-63 -70v-934h-258zM376 -256v176h176v-176h-176z" />
    <glyph glyph-name="uni1E2A" unicode="&#x1e2a;" horiz-adv-x="910" 
d="M86 0v1600h259v-674h221v674h258v-1600h-258v698h-221v-698h-259zM456 -355q-142 0 -207 63.5t-73 210.5h156q0 -76 28.5 -109t95.5 -33q66 0 94.5 33t29.5 109h155q-9 -147 -73.5 -210.5t-205.5 -63.5z" />
    <glyph glyph-name="uni1E2B" unicode="&#x1e2b;" horiz-adv-x="939" 
d="M89 0v1600h258v-524h46q39 69 83 105.5t132 36.5q117 0 182 -72t65 -240v-906h-258v927q0 53 -24.5 77.5t-73.5 24.5q-44 0 -89 -25t-63 -70v-934h-258zM465 -355q-142 0 -207 63.5t-73 210.5h156q0 -76 28.5 -109t95.5 -33q66 0 94.5 33t29.5 109h155
q-9 -147 -73.5 -210.5t-205.5 -63.5z" />
    <glyph glyph-name="uni1E2E" unicode="&#x1e2e;" horiz-adv-x="431" 
d="M86 0v1600h259v-1600h-259zM265 1710v176h176v-176h-176zM-10 1710v176h175v-176h-175zM143 1937l180 265h169l-189 -265h-160z" />
    <glyph glyph-name="uni1E2F" unicode="&#x1e2f;" horiz-adv-x="436" 
d="M89 0v1200h258v-1200h-258zM268 1310v176h176v-176h-176zM-7 1310v176h175v-176h-175zM146 1537l180 265h169l-189 -265h-160z" />
    <glyph glyph-name="uni1E36" unicode="&#x1e36;" horiz-adv-x="748" 
d="M86 0v1600h259v-1372h375v-228h-634zM316 -256v176h176v-176h-176z" />
    <glyph glyph-name="uni1E37" unicode="&#x1e37;" horiz-adv-x="436" 
d="M89 0v1600h258v-1600h-258zM130 -256v176h176v-176h-176z" />
    <glyph glyph-name="uni1E3A" unicode="&#x1e3a;" horiz-adv-x="748" 
d="M86 0v1600h259v-1372h375v-228h-634zM83 -106h614v-120h-614v120z" />
    <glyph glyph-name="uni1E3B" unicode="&#x1e3b;" horiz-adv-x="436" 
d="M89 0v1600h258v-1600h-258zM-103 -106h614v-120h-614v120z" />
    <glyph glyph-name="uni1E42" unicode="&#x1e42;" horiz-adv-x="1381" 
d="M86 0v1600h423l123 -618l35 -752h49l33 752l125 618h421v-1600h-259v486l50 886h-52l-90 -903l-111 -467h-286l-109 467l-91 903h-50l48 -886v-486h-259zM603 -256v176h176v-176h-176z" />
    <glyph glyph-name="uni1E43" unicode="&#x1e43;" horiz-adv-x="1436" 
d="M89 0v1200h258v-124h46q38 69 82.5 105.5t132.5 36.5q85 0 141.5 -37t82.5 -122h42q39 69 91.5 114t140.5 45q117 0 181 -72t64 -240v-906h-258v927q0 53 -24 77.5t-72 24.5q-42 0 -83 -28.5t-61 -71.5v-929h-258v927q0 53 -23.5 77.5t-72.5 24.5q-44 0 -89 -25t-63 -70
v-934h-258zM634 -256v176h176v-176h-176z" />
    <glyph glyph-name="uni1E44" unicode="&#x1e44;" horiz-adv-x="1016" 
d="M86 0v1600h382l113 -509l116 -863h50l-47 716l-21 656h250v-1600h-400l-115 536l-90 838h-54l44 -764l22 -610h-250zM422 1680v176h176v-176h-176z" />
    <glyph glyph-name="uni1E45" unicode="&#x1e45;" horiz-adv-x="939" 
d="M89 0v1200h258v-124h46q39 68 83.5 105t131.5 37q117 0 182 -72t65 -240v-906h-258v927q0 53 -24.5 77.5t-73.5 24.5q-43 0 -88.5 -25.5t-63.5 -69.5v-934h-258zM384 1280v176h176v-176h-176z" />
    <glyph glyph-name="uni1E46" unicode="&#x1e46;" horiz-adv-x="1016" 
d="M86 0v1600h382l113 -509l116 -863h50l-47 716l-21 656h250v-1600h-400l-115 536l-90 838h-54l44 -764l22 -610h-250zM420 -256v176h176v-176h-176z" />
    <glyph glyph-name="uni1E47" unicode="&#x1e47;" horiz-adv-x="939" 
d="M89 0v1200h258v-124h46q39 68 83.5 105t131.5 37q117 0 182 -72t65 -240v-906h-258v927q0 53 -24.5 77.5t-73.5 24.5q-43 0 -88.5 -25.5t-63.5 -69.5v-934h-258zM385 -256v176h176v-176h-176z" />
    <glyph glyph-name="uni1E48" unicode="&#x1e48;" horiz-adv-x="1016" 
d="M86 0v1600h382l113 -509l116 -863h50l-47 716l-21 656h250v-1600h-400l-115 536l-90 838h-54l44 -764l22 -610h-250zM187 -106h614v-120h-614v120z" />
    <glyph glyph-name="uni1E49" unicode="&#x1e49;" horiz-adv-x="939" 
d="M89 0v1200h258v-124h46q39 68 83.5 105t131.5 37q117 0 182 -72t65 -240v-906h-258v927q0 53 -24.5 77.5t-73.5 24.5q-43 0 -88.5 -25.5t-63.5 -69.5v-934h-258zM152 -106h614v-120h-614v120z" />
    <glyph glyph-name="uni1E4C" unicode="&#x1e4c;" horiz-adv-x="924" 
d="M462 -18q-200 0 -289 84.5t-93 281.5q-2 109 -3.5 223t-1.5 229.5t1.5 229.5t3.5 224q4 196 93 280t289 84q201 0 288 -84t93 -280q3 -111 5 -225t2 -229.5t-2 -229t-5 -222.5q-6 -197 -93 -281.5t-288 -84.5zM462 193q62 0 92 27t31 81q4 113 6 240.5t2 260t-2 259.5
t-6 240q-1 53 -32 79.5t-91 26.5t-91 -26.5t-33 -79.5q-4 -113 -6.5 -240t-2.5 -259.5t2.5 -260t6.5 -240.5q2 -54 33 -81t91 -27zM604 1879h100q-5 -103 -40.5 -151.5t-102.5 -48.5q-41 0 -65 13.5t-40.5 31t-34 31t-44.5 13.5q-30 0 -39.5 -20.5t-12.5 -57.5h-100
q7 112 45 161t105 49q41 0 66.5 -13t42.5 -30.5t34 -31t42 -13.5t33.5 17t10.5 50zM390 1984l180 265h169l-189 -265h-160z" />
    <glyph glyph-name="uni1E4D" unicode="&#x1e4d;" horiz-adv-x="897" 
d="M450 -18q-134 0 -213.5 36.5t-116.5 117t-44 212.5q-2 46 -3.5 111.5t-1.5 138t1 140t4 116.5q7 130 43.5 210.5t116 117t214.5 36.5t213.5 -37t115 -117.5t43.5 -209.5q2 -46 3 -112t1 -138.5t-1 -139.5t-3 -116q-7 -130 -43.5 -211t-115 -118t-213.5 -37zM450 176
q61 0 86.5 27t27.5 81q2 79 3.5 158t1.5 159t-1.5 159t-3.5 157q-2 54 -27.5 80.5t-86.5 26.5q-60 0 -87 -26.5t-29 -80.5q-2 -78 -3.5 -157.5t-1.5 -159t1.5 -159t3.5 -157.5q2 -54 29 -81t87 -27zM590 1479h100q-5 -103 -40.5 -151.5t-102.5 -48.5q-41 0 -65 13.5
t-40.5 31t-34 31t-44.5 13.5q-30 0 -39.5 -20.5t-12.5 -57.5h-100q7 112 45 161t105 49q41 0 66.5 -13t42.5 -30.5t34 -31t42 -13.5t33.5 17t10.5 50zM376 1584l180 265h169l-189 -265h-160z" />
    <glyph glyph-name="uni1E4E" unicode="&#x1e4e;" horiz-adv-x="924" 
d="M462 -18q-200 0 -289 84.5t-93 281.5q-2 109 -3.5 223t-1.5 229.5t1.5 229.5t3.5 224q4 196 93 280t289 84q201 0 288 -84t93 -280q3 -111 5 -225t2 -229.5t-2 -229t-5 -222.5q-6 -197 -93 -281.5t-288 -84.5zM462 193q62 0 92 27t31 81q4 113 6 240.5t2 260t-2 259.5
t-6 240q-1 53 -32 79.5t-91 26.5t-91 -26.5t-33 -79.5q-4 -113 -6.5 -240t-2.5 -259.5t2.5 -260t6.5 -240.5q2 -54 33 -81t91 -27zM604 1879h100q-5 -103 -40.5 -151.5t-102.5 -48.5q-41 0 -65 13.5t-40.5 31t-34 31t-44.5 13.5q-30 0 -39.5 -20.5t-12.5 -57.5h-100
q7 112 45 161t105 49q41 0 66.5 -13t42.5 -30.5t34 -31t42 -13.5t33.5 17t10.5 50zM512 2014v176h176v-176h-176zM237 2014v176h175v-176h-175z" />
    <glyph glyph-name="uni1E4F" unicode="&#x1e4f;" horiz-adv-x="897" 
d="M450 -18q-134 0 -213.5 36.5t-116.5 117t-44 212.5q-2 46 -3.5 111.5t-1.5 138t1 140t4 116.5q7 130 43.5 210.5t116 117t214.5 36.5t213.5 -37t115 -117.5t43.5 -209.5q2 -46 3 -112t1 -138.5t-1 -139.5t-3 -116q-7 -130 -43.5 -211t-115 -118t-213.5 -37zM450 176
q61 0 86.5 27t27.5 81q2 79 3.5 158t1.5 159t-1.5 159t-3.5 157q-2 54 -27.5 80.5t-86.5 26.5q-60 0 -87 -26.5t-29 -80.5q-2 -78 -3.5 -157.5t-1.5 -159t1.5 -159t3.5 -157.5q2 -54 29 -81t87 -27zM590 1479h100q-5 -103 -40.5 -151.5t-102.5 -48.5q-41 0 -65 13.5
t-40.5 31t-34 31t-44.5 13.5q-30 0 -39.5 -20.5t-12.5 -57.5h-100q7 112 45 161t105 49q41 0 66.5 -13t42.5 -30.5t34 -31t42 -13.5t33.5 17t10.5 50zM498 1614v176h176v-176h-176zM223 1614v176h175v-176h-175z" />
    <glyph glyph-name="uni1E50" unicode="&#x1e50;" horiz-adv-x="924" 
d="M462 -18q-200 0 -289 84.5t-93 281.5q-2 109 -3.5 223t-1.5 229.5t1.5 229.5t3.5 224q4 196 93 280t289 84q201 0 288 -84t93 -280q3 -111 5 -225t2 -229.5t-2 -229t-5 -222.5q-6 -197 -93 -281.5t-288 -84.5zM462 193q62 0 92 27t31 81q4 113 6 240.5t2 260t-2 259.5
t-6 240q-1 53 -32 79.5t-91 26.5t-91 -26.5t-33 -79.5q-4 -113 -6.5 -240t-2.5 -259.5t2.5 -260t6.5 -240.5q2 -54 33 -81t91 -27zM154 1784h614v-120h-614v120zM357 1887l-172 265h169l164 -265h-161z" />
    <glyph glyph-name="uni1E51" unicode="&#x1e51;" horiz-adv-x="897" 
d="M450 -18q-134 0 -213.5 36.5t-116.5 117t-44 212.5q-2 46 -3.5 111.5t-1.5 138t1 140t4 116.5q7 130 43.5 210.5t116 117t214.5 36.5t213.5 -37t115 -117.5t43.5 -209.5q2 -46 3 -112t1 -138.5t-1 -139.5t-3 -116q-7 -130 -43.5 -211t-115 -118t-213.5 -37zM450 176
q61 0 86.5 27t27.5 81q2 79 3.5 158t1.5 159t-1.5 159t-3.5 157q-2 54 -27.5 80.5t-86.5 26.5q-60 0 -87 -26.5t-29 -80.5q-2 -78 -3.5 -157.5t-1.5 -159t1.5 -159t3.5 -157.5q2 -54 29 -81t87 -27zM140 1384h614v-120h-614v120zM343 1487l-172 265h169l164 -265h-161z" />
    <glyph glyph-name="uni1E52" unicode="&#x1e52;" horiz-adv-x="924" 
d="M462 -18q-200 0 -289 84.5t-93 281.5q-2 109 -3.5 223t-1.5 229.5t1.5 229.5t3.5 224q4 196 93 280t289 84q201 0 288 -84t93 -280q3 -111 5 -225t2 -229.5t-2 -229t-5 -222.5q-6 -197 -93 -281.5t-288 -84.5zM462 193q62 0 92 27t31 81q4 113 6 240.5t2 260t-2 259.5
t-6 240q-1 53 -32 79.5t-91 26.5t-91 -26.5t-33 -79.5q-4 -113 -6.5 -240t-2.5 -259.5t2.5 -260t6.5 -240.5q2 -54 33 -81t91 -27zM154 1784h614v-120h-614v120zM391 1887l180 265h169l-189 -265h-160z" />
    <glyph glyph-name="uni1E53" unicode="&#x1e53;" horiz-adv-x="897" 
d="M450 -18q-134 0 -213.5 36.5t-116.5 117t-44 212.5q-2 46 -3.5 111.5t-1.5 138t1 140t4 116.5q7 130 43.5 210.5t116 117t214.5 36.5t213.5 -37t115 -117.5t43.5 -209.5q2 -46 3 -112t1 -138.5t-1 -139.5t-3 -116q-7 -130 -43.5 -211t-115 -118t-213.5 -37zM450 176
q61 0 86.5 27t27.5 81q2 79 3.5 158t1.5 159t-1.5 159t-3.5 157q-2 54 -27.5 80.5t-86.5 26.5q-60 0 -87 -26.5t-29 -80.5q-2 -78 -3.5 -157.5t-1.5 -159t1.5 -159t3.5 -157.5q2 -54 29 -81t87 -27zM140 1384h614v-120h-614v120zM377 1487l180 265h169l-189 -265h-160z" />
    <glyph glyph-name="uni1E5A" unicode="&#x1e5a;" horiz-adv-x="889" 
d="M86 0v1600h351q202 0 291.5 -83t96.5 -274q2 -64 3 -115.5t0 -102t-3 -110.5q-4 -122 -41 -198.5t-116 -115.5l181 -601h-274l-150 558h-80v-558h-259zM345 786h91q65 0 96.5 29.5t34.5 86.5q3 56 4 116.5t0 121t-4 116.5q-3 57 -34.5 86.5t-95.5 29.5h-92v-586z
M378 -256v176h176v-176h-176z" />
    <glyph glyph-name="uni1E5B" unicode="&#x1e5b;" horiz-adv-x="650" 
d="M89 0v1200h258v-141h46q11 83 52.5 115.5t106.5 32.5q24 0 46.5 -2t34.5 -3v-198h-77q-108 0 -152.5 -34t-56.5 -96v-874h-258zM130 -256v176h176v-176h-176z" />
    <glyph glyph-name="uni1E5E" unicode="&#x1e5e;" horiz-adv-x="889" 
d="M86 0v1600h351q202 0 291.5 -83t96.5 -274q2 -64 3 -115.5t0 -102t-3 -110.5q-4 -122 -41 -198.5t-116 -115.5l181 -601h-274l-150 558h-80v-558h-259zM345 786h91q65 0 96.5 29.5t34.5 86.5q3 56 4 116.5t0 121t-4 116.5q-3 57 -34.5 86.5t-95.5 29.5h-92v-586z
M146 -106h614v-120h-614v120z" />
    <glyph glyph-name="uni1E5F" unicode="&#x1e5f;" horiz-adv-x="650" 
d="M89 0v1200h258v-141h46q11 83 52.5 115.5t106.5 32.5q24 0 46.5 -2t34.5 -3v-198h-77q-108 0 -152.5 -34t-56.5 -96v-874h-258zM-103 -106h614v-120h-614v120z" />
    <glyph glyph-name="uni1E60" unicode="&#x1e60;" horiz-adv-x="882" 
d="M442 -18q-199 0 -284 85t-94 282q-1 39 -1 81t2 83.5t6 81.5h243q-4 -77 -4.5 -152.5t4.5 -140.5q5 -54 35.5 -81.5t92.5 -27.5q61 0 89 27.5t33 81.5q4 40 5.5 76t0 73t-5.5 78q-3 50 -24.5 88t-71.5 51l-149 38q-97 25 -153 72.5t-80.5 119.5t-27.5 170q-1 49 -1 94.5
t1 90.5q5 131 43.5 211.5t121 117t219.5 36.5q193 0 279.5 -84.5t94.5 -280.5q2 -46 1 -113t-4 -129h-248q3 72 4 144.5t-2 144.5q-2 53 -34.5 80t-90.5 27q-62 0 -91 -27t-35 -80q-5 -58 -5 -116t5 -116q5 -52 26.5 -88t75.5 -49l131 -31q103 -25 162 -74.5t84.5 -123.5
t28.5 -173q1 -33 1 -62.5t-0.5 -58t-2.5 -59.5q-8 -197 -93.5 -282t-286.5 -85zM351 1680v176h176v-176h-176z" />
    <glyph glyph-name="uni1E61" unicode="&#x1e61;" horiz-adv-x="817" 
d="M402 -18q-177 0 -253.5 76t-83.5 251q-1 35 -0.5 80t2.5 63h226q-2 -53 -2 -97.5t1 -72.5q3 -58 30.5 -82t79.5 -24q63 0 91 24t29 82v35.5v16.5v32q0 42 -15 67.5t-54 37.5l-130 37q-85 26 -144 63.5t-89.5 96.5t-31.5 147v36v35q1 178 80.5 255t275.5 77
q179 0 253.5 -74.5t81.5 -246.5q2 -34 1 -80t-3 -66h-234q1 22 1.5 57t0 68t-1.5 50q-3 54 -24 76t-75 22q-57 0 -79.5 -22t-24.5 -76q-1 -25 -1.5 -39t-0.5 -50q0 -46 14 -77.5t63 -44.5l115 -29q129 -32 194.5 -101.5t65.5 -204.5v-38.5v-38.5q-1 -172 -83 -246.5
t-275 -74.5zM317 1280v176h176v-176h-176z" />
    <glyph glyph-name="uni1E62" unicode="&#x1e62;" horiz-adv-x="882" 
d="M442 -18q-199 0 -284 85t-94 282q-1 39 -1 81t2 83.5t6 81.5h243q-4 -77 -4.5 -152.5t4.5 -140.5q5 -54 35.5 -81.5t92.5 -27.5q61 0 89 27.5t33 81.5q4 40 5.5 76t0 73t-5.5 78q-3 50 -24.5 88t-71.5 51l-149 38q-97 25 -153 72.5t-80.5 119.5t-27.5 170q-1 49 -1 94.5
t1 90.5q5 131 43.5 211.5t121 117t219.5 36.5q193 0 279.5 -84.5t94.5 -280.5q2 -46 1 -113t-4 -129h-248q3 72 4 144.5t-2 144.5q-2 53 -34.5 80t-90.5 27q-62 0 -91 -27t-35 -80q-5 -58 -5 -116t5 -116q5 -52 26.5 -88t75.5 -49l131 -31q103 -25 162 -74.5t84.5 -123.5
t28.5 -173q1 -33 1 -62.5t-0.5 -58t-2.5 -59.5q-8 -197 -93.5 -282t-286.5 -85zM352 -256v176h176v-176h-176z" />
    <glyph glyph-name="uni1E63" unicode="&#x1e63;" horiz-adv-x="817" 
d="M402 -18q-177 0 -253.5 76t-83.5 251q-1 35 -0.5 80t2.5 63h226q-2 -53 -2 -97.5t1 -72.5q3 -58 30.5 -82t79.5 -24q63 0 91 24t29 82v35.5v16.5v32q0 42 -15 67.5t-54 37.5l-130 37q-85 26 -144 63.5t-89.5 96.5t-31.5 147v36v35q1 178 80.5 255t275.5 77
q179 0 253.5 -74.5t81.5 -246.5q2 -34 1 -80t-3 -66h-234q1 22 1.5 57t0 68t-1.5 50q-3 54 -24 76t-75 22q-57 0 -79.5 -22t-24.5 -76q-1 -25 -1.5 -39t-0.5 -50q0 -46 14 -77.5t63 -44.5l115 -29q129 -32 194.5 -101.5t65.5 -204.5v-38.5v-38.5q-1 -172 -83 -246.5
t-275 -74.5zM317 -256v176h176v-176h-176z" />
    <glyph glyph-name="uni1E64" unicode="&#x1e64;" horiz-adv-x="882" 
d="M442 -18q-199 0 -284 85t-94 282q-1 39 -1 81t2 83.5t6 81.5h243q-4 -77 -4.5 -152.5t4.5 -140.5q5 -54 35.5 -81.5t92.5 -27.5q61 0 89 27.5t33 81.5q4 40 5.5 76t0 73t-5.5 78q-3 50 -24.5 88t-71.5 51l-149 38q-97 25 -153 72.5t-80.5 119.5t-27.5 170q-1 49 -1 94.5
t1 90.5q5 131 43.5 211.5t121 117t219.5 36.5q193 0 279.5 -84.5t94.5 -280.5q2 -46 1 -113t-4 -129h-248q3 72 4 144.5t-2 144.5q-2 53 -34.5 80t-90.5 27q-62 0 -91 -27t-35 -80q-5 -58 -5 -116t5 -116q5 -52 26.5 -88t75.5 -49l131 -31q103 -25 162 -74.5t84.5 -123.5
t28.5 -173q1 -33 1 -62.5t-0.5 -58t-2.5 -59.5q-8 -197 -93.5 -282t-286.5 -85zM368 1680l180 265h169l-189 -265h-160zM351 2027v176h176v-176h-176z" />
    <glyph glyph-name="uni1E65" unicode="&#x1e65;" horiz-adv-x="817" 
d="M402 -18q-177 0 -253.5 76t-83.5 251q-1 35 -0.5 80t2.5 63h226q-2 -53 -2 -97.5t1 -72.5q3 -58 30.5 -82t79.5 -24q63 0 91 24t29 82v35.5v16.5v32q0 42 -15 67.5t-54 37.5l-130 37q-85 26 -144 63.5t-89.5 96.5t-31.5 147v36v35q1 178 80.5 255t275.5 77
q179 0 253.5 -74.5t81.5 -246.5q2 -34 1 -80t-3 -66h-234q1 22 1.5 57t0 68t-1.5 50q-3 54 -24 76t-75 22q-57 0 -79.5 -22t-24.5 -76q-1 -25 -1.5 -39t-0.5 -50q0 -46 14 -77.5t63 -44.5l115 -29q129 -32 194.5 -101.5t65.5 -204.5v-38.5v-38.5q-1 -172 -83 -246.5
t-275 -74.5zM333 1280l180 265h169l-189 -265h-160zM317 1627v176h176v-176h-176z" />
    <glyph glyph-name="uni1E66" unicode="&#x1e66;" horiz-adv-x="882" 
d="M442 -18q-199 0 -284 85t-94 282q-1 39 -1 81t2 83.5t6 81.5h243q-4 -77 -4.5 -152.5t4.5 -140.5q5 -54 35.5 -81.5t92.5 -27.5q61 0 89 27.5t33 81.5q4 40 5.5 76t0 73t-5.5 78q-3 50 -24.5 88t-71.5 51l-149 38q-97 25 -153 72.5t-80.5 119.5t-27.5 170q-1 49 -1 94.5
t1 90.5q5 131 43.5 211.5t121 117t219.5 36.5q193 0 279.5 -84.5t94.5 -280.5q2 -46 1 -113t-4 -129h-248q3 72 4 144.5t-2 144.5q-2 53 -34.5 80t-90.5 27q-62 0 -91 -27t-35 -80q-5 -58 -5 -116t5 -116q5 -52 26.5 -88t75.5 -49l131 -31q103 -25 162 -74.5t84.5 -123.5
t28.5 -173q1 -33 1 -62.5t-0.5 -58t-2.5 -59.5q-8 -197 -93.5 -282t-286.5 -85zM372 1682l-156 265h152l71 -137l71 137h151l-155 -265h-134zM351 2027v176h176v-176h-176z" />
    <glyph glyph-name="uni1E67" unicode="&#x1e67;" horiz-adv-x="817" 
d="M402 -18q-177 0 -253.5 76t-83.5 251q-1 35 -0.5 80t2.5 63h226q-2 -53 -2 -97.5t1 -72.5q3 -58 30.5 -82t79.5 -24q63 0 91 24t29 82v35.5v16.5v32q0 42 -15 67.5t-54 37.5l-130 37q-85 26 -144 63.5t-89.5 96.5t-31.5 147v36v35q1 178 80.5 255t275.5 77
q179 0 253.5 -74.5t81.5 -246.5q2 -34 1 -80t-3 -66h-234q1 22 1.5 57t0 68t-1.5 50q-3 54 -24 76t-75 22q-57 0 -79.5 -22t-24.5 -76q-1 -25 -1.5 -39t-0.5 -50q0 -46 14 -77.5t63 -44.5l115 -29q129 -32 194.5 -101.5t65.5 -204.5v-38.5v-38.5q-1 -172 -83 -246.5
t-275 -74.5zM337 1282l-156 265h152l71 -137l71 137h151l-155 -265h-134zM317 1627v176h176v-176h-176z" />
    <glyph glyph-name="uni1E68" unicode="&#x1e68;" horiz-adv-x="882" 
d="M442 -18q-199 0 -284 85t-94 282q-1 39 -1 81t2 83.5t6 81.5h243q-4 -77 -4.5 -152.5t4.5 -140.5q5 -54 35.5 -81.5t92.5 -27.5q61 0 89 27.5t33 81.5q4 40 5.5 76t0 73t-5.5 78q-3 50 -24.5 88t-71.5 51l-149 38q-97 25 -153 72.5t-80.5 119.5t-27.5 170q-1 49 -1 94.5
t1 90.5q5 131 43.5 211.5t121 117t219.5 36.5q193 0 279.5 -84.5t94.5 -280.5q2 -46 1 -113t-4 -129h-248q3 72 4 144.5t-2 144.5q-2 53 -34.5 80t-90.5 27q-62 0 -91 -27t-35 -80q-5 -58 -5 -116t5 -116q5 -52 26.5 -88t75.5 -49l131 -31q103 -25 162 -74.5t84.5 -123.5
t28.5 -173q1 -33 1 -62.5t-0.5 -58t-2.5 -59.5q-8 -197 -93.5 -282t-286.5 -85zM352 -256v176h176v-176h-176zM351 1680v176h176v-176h-176z" />
    <glyph glyph-name="uni1E69" unicode="&#x1e69;" horiz-adv-x="817" 
d="M402 -18q-177 0 -253.5 76t-83.5 251q-1 35 -0.5 80t2.5 63h226q-2 -53 -2 -97.5t1 -72.5q3 -58 30.5 -82t79.5 -24q63 0 91 24t29 82v35.5v16.5v32q0 42 -15 67.5t-54 37.5l-130 37q-85 26 -144 63.5t-89.5 96.5t-31.5 147v36v35q1 178 80.5 255t275.5 77
q179 0 253.5 -74.5t81.5 -246.5q2 -34 1 -80t-3 -66h-234q1 22 1.5 57t0 68t-1.5 50q-3 54 -24 76t-75 22q-57 0 -79.5 -22t-24.5 -76q-1 -25 -1.5 -39t-0.5 -50q0 -46 14 -77.5t63 -44.5l115 -29q129 -32 194.5 -101.5t65.5 -204.5v-38.5v-38.5q-1 -172 -83 -246.5
t-275 -74.5zM317 -256v176h176v-176h-176zM317 1280v176h176v-176h-176z" />
    <glyph glyph-name="uni1E6C" unicode="&#x1e6c;" horiz-adv-x="769" 
d="M255 0v1372h-243v228h745v-228h-244v-1372h-258zM296 -256v176h176v-176h-176z" />
    <glyph glyph-name="uni1E6D" unicode="&#x1e6d;" horiz-adv-x="644" 
d="M523 -18q-206 0 -294.5 76t-88.5 251v695h-106v196h108v340h260v-340h196v-196h-200v-723q0 -59 24 -83t102 -24q24 0 45.5 1t48.5 2v-185q-21 -6 -44.5 -8t-50.5 -2zM304 -256v176h176v-176h-176z" />
    <glyph glyph-name="uni1E6E" unicode="&#x1e6e;" horiz-adv-x="769" 
d="M255 0v1372h-243v228h745v-228h-244v-1372h-258zM64 -106h614v-120h-614v120z" />
    <glyph glyph-name="uni1E6F" unicode="&#x1e6f;" horiz-adv-x="644" 
d="M523 -18q-206 0 -294.5 76t-88.5 251v695h-106v196h108v340h260v-340h196v-196h-200v-723q0 -59 24 -83t102 -24q24 0 45.5 1t48.5 2v-185q-21 -6 -44.5 -8t-50.5 -2zM71 -106h614v-120h-614v120z" />
    <glyph glyph-name="uni1E78" unicode="&#x1e78;" horiz-adv-x="906" 
d="M454 -18q-203 0 -291 84.5t-91 281.5q-4 311 -4 626.5t4 625.5h259q-4 -207 -4.5 -428.5t0.5 -442.5t3 -428q0 -53 32 -80.5t92 -27.5q61 0 91.5 27.5t30.5 80.5q2 207 3.5 428t1 442.5t-4.5 428.5h258q5 -310 5 -625.5t-5 -626.5q-3 -197 -90 -281.5t-290 -84.5z
M594 1879h100q-5 -103 -40.5 -151.5t-102.5 -48.5q-41 0 -65 13.5t-40.5 31t-34 31t-44.5 13.5q-30 0 -39.5 -20.5t-12.5 -57.5h-100q7 112 45 161t105 49q41 0 66.5 -13t42.5 -30.5t34 -31t42 -13.5t33.5 17t10.5 50zM380 1984l180 265h169l-189 -265h-160z" />
    <glyph glyph-name="uni1E79" unicode="&#x1e79;" horiz-adv-x="932" 
d="M334 -18q-116 0 -184.5 72.5t-68.5 240.5v905h258v-927q0 -53 23.5 -77.5t71.5 -24.5q43 0 88 25.5t63 69.5v934h259v-1200h-259v124h-36q-41 -76 -92 -109t-123 -33zM599 1479h100q-5 -103 -40.5 -151.5t-102.5 -48.5q-41 0 -65 13.5t-40.5 31t-34 31t-44.5 13.5
q-30 0 -39.5 -20.5t-12.5 -57.5h-100q7 112 45 161t105 49q41 0 66.5 -13t42.5 -30.5t34 -31t42 -13.5t33.5 17t10.5 50zM386 1584l180 265h169l-189 -265h-160z" />
    <glyph glyph-name="uni1E7A" unicode="&#x1e7a;" horiz-adv-x="906" 
d="M454 -18q-203 0 -291 84.5t-91 281.5q-4 311 -4 626.5t4 625.5h259q-4 -207 -4.5 -428.5t0.5 -442.5t3 -428q0 -53 32 -80.5t92 -27.5q61 0 91.5 27.5t30.5 80.5q2 207 3.5 428t1 442.5t-4.5 428.5h258q5 -310 5 -625.5t-5 -626.5q-3 -197 -90 -281.5t-290 -84.5z
M145 1784h614v-120h-614v120zM504 1917v176h176v-176h-176zM229 1917v176h175v-176h-175z" />
    <glyph glyph-name="uni1E7B" unicode="&#x1e7b;" horiz-adv-x="932" 
d="M334 -18q-116 0 -184.5 72.5t-68.5 240.5v905h258v-927q0 -53 23.5 -77.5t71.5 -24.5q43 0 88 25.5t63 69.5v934h259v-1200h-259v124h-36q-41 -76 -92 -109t-123 -33zM150 1384h614v-120h-614v120zM509 1517v176h176v-176h-176zM234 1517v176h175v-176h-175z" />
    <glyph glyph-name="Wgrave" unicode="&#x1e80;" horiz-adv-x="1465" 
d="M183 0l-141 1600h260l47 -699l34 -673h51l8 673l118 689h345l119 -689l7 -673h51l34 673l48 699h260l-142 -1600h-428l-66 466l-30 904h-51l-30 -904l-66 -466h-428zM626 1680l-172 265h169l164 -265h-161z" />
    <glyph glyph-name="wgrave" unicode="&#x1e81;" horiz-adv-x="1412" 
d="M179 0l-150 1200h260l51 -603l19 -406h69l14 406l54 601h419l52 -601l13 -406h69l20 406l53 603h262l-155 -1200h-437l-36 466l-16 542h-70l-18 -542l-36 -466h-437zM598 1280l-172 265h169l164 -265h-161z" />
    <glyph glyph-name="Wacute" unicode="&#x1e82;" horiz-adv-x="1465" 
d="M183 0l-141 1600h260l47 -699l34 -673h51l8 673l118 689h345l119 -689l7 -673h51l34 673l48 699h260l-142 -1600h-428l-66 466l-30 904h-51l-30 -904l-66 -466h-428zM660 1680l180 265h169l-189 -265h-160z" />
    <glyph glyph-name="wacute" unicode="&#x1e83;" horiz-adv-x="1412" 
d="M179 0l-150 1200h260l51 -603l19 -406h69l14 406l54 601h419l52 -601l13 -406h69l20 406l53 603h262l-155 -1200h-437l-36 466l-16 542h-70l-18 -542l-36 -466h-437zM632 1280l180 265h169l-189 -265h-160z" />
    <glyph glyph-name="Wdieresis" unicode="&#x1e84;" horiz-adv-x="1465" 
d="M183 0l-141 1600h260l47 -699l34 -673h51l8 673l118 689h345l119 -689l7 -673h51l34 673l48 699h260l-142 -1600h-428l-66 466l-30 904h-51l-30 -904l-66 -466h-428zM783 1710v176h176v-176h-176zM508 1710v176h175v-176h-175z" />
    <glyph glyph-name="wdieresis" unicode="&#x1e85;" horiz-adv-x="1412" 
d="M179 0l-150 1200h260l51 -603l19 -406h69l14 406l54 601h419l52 -601l13 -406h69l20 406l53 603h262l-155 -1200h-437l-36 466l-16 542h-70l-18 -542l-36 -466h-437zM754 1310v176h176v-176h-176zM479 1310v176h175v-176h-175z" />
    <glyph glyph-name="uni1E8E" unicode="&#x1e8e;" horiz-adv-x="860" 
d="M301 0v390v2l-280 1208h264l84 -404l36 -467h51l35 467l84 404h264l-280 -1209v-2v-389h-258zM333 1680v176h176v-176h-176z" />
    <glyph glyph-name="uni1E8F" unicode="&#x1e8f;" horiz-adv-x="832" 
d="M210 -418q-32 0 -71.5 3.5t-73.5 9.5v192q26 -1 71 -3t74 -2q78 0 108.5 24.5t37.5 82.5l15 111h-138l-205 1200h262l63 -553l49 -456h64l26 456l51 553h262l-191 -1291q-17 -116 -59.5 -188t-124.5 -105.5t-220 -33.5zM329 1280v176h176v-176h-176z" />
    <glyph glyph-name="uni1E92" unicode="&#x1e92;" horiz-adv-x="776" 
d="M34 0v215l431 1157h-407v228h683v-219l-448 -1153h417v-228h-676zM295 -256v176h176v-176h-176z" />
    <glyph glyph-name="uni1E93" unicode="&#x1e93;" horiz-adv-x="741" 
d="M39 0v164l390 845l-382 -1v191l657 1v-169l-396 -840h391v-191h-660zM283 -256v176h176v-176h-176z" />
    <glyph glyph-name="uni1E97" unicode="&#x1e97;" horiz-adv-x="644" 
d="M523 -18q-206 0 -294.5 76t-88.5 251v695h-106v196h108v340h260v-340h196v-196h-200v-723q0 -59 24 -83t102 -24q24 0 45.5 1t48.5 2v-185q-21 -6 -44.5 -8t-50.5 -2zM344 1656v176h176v-176h-176zM69 1656v176h175v-176h-175z" />
    <glyph glyph-name="uni1E9E" unicode="&#x1e9e;" horiz-adv-x="996" 
d="M86 0v1235q0 196 91.5 280.5t291.5 84.5h413v-194l-203 -502q125 -39 174 -125.5t54 -224.5q2 -31 2 -61t-1 -60.5t-2 -62.5q-8 -199 -94.5 -284.5t-288.5 -85.5h-104v211h104q62 0 90.5 28.5t34.5 83.5q5 60 5 116t-5 115q-4 52 -26.5 93t-76.5 41h-115l-3 202l186 499
h-144q-60 0 -92 -26.5t-32 -80.5v-1282h-259z" />
    <glyph glyph-name="uni1EA0" unicode="&#x1ea0;" 
d="M26 0l209 1600h416l209 -1600h-265l-36 367h-232l-36 -367h-265zM351 595h184l-35 352l-29 425h-56l-29 -425zM355 -256v176h176v-176h-176z" />
    <glyph glyph-name="uni1EA1" unicode="&#x1ea1;" horiz-adv-x="887" 
d="M315 -15q-124 0 -182.5 62.5t-71.5 209.5q-1 20 -1 46t1 46q6 79 34.5 136t88.5 101.5t159 83.5q52 22 101 37.5t102 30.5v180q0 52 -21 79t-81 27q-51 0 -72.5 -22t-24.5 -76q-1 -17 -1.5 -50.5t0 -68.5t1.5 -56h-251q-1 18 -2 64.5t0 81.5q5 112 40 183t111.5 104.5
t205.5 33.5q135 0 211.5 -37t108 -116.5t31.5 -207.5l-1 -857h-258v124h-34q-32 -71 -75 -105t-119 -34zM420 171q42 0 74 24t51 65v307q-36 -9 -70 -21.5t-66 -30.5q-53 -28 -72 -70.5t-22 -95.5v-36.5t1 -34.5q5 -52 31 -79.5t73 -27.5zM344 -256v176h176v-176h-176z" />
    <glyph glyph-name="uni1EA2" unicode="&#x1ea2;" 
d="M26 0l209 1600h416l209 -1600h-265l-36 367h-232l-36 -367h-265zM351 595h184l-35 352l-29 425h-56l-29 -425zM455 1676l14 65q13 57 -6.5 77t-90.5 20h-87v123h87q133 0 195 -52.5t35 -167.5l-14 -65h-133z" />
    <glyph glyph-name="uni1EA3" unicode="&#x1ea3;" horiz-adv-x="887" 
d="M315 -15q-124 0 -182.5 62.5t-71.5 209.5q-1 20 -1 46t1 46q6 79 34.5 136t88.5 101.5t159 83.5q52 22 101 37.5t102 30.5v180q0 52 -21 79t-81 27q-51 0 -72.5 -22t-24.5 -76q-1 -17 -1.5 -50.5t0 -68.5t1.5 -56h-251q-1 18 -2 64.5t0 81.5q5 112 40 183t111.5 104.5
t205.5 33.5q135 0 211.5 -37t108 -116.5t31.5 -207.5l-1 -857h-258v124h-34q-32 -71 -75 -105t-119 -34zM420 171q42 0 74 24t51 65v307q-36 -9 -70 -21.5t-66 -30.5q-53 -28 -72 -70.5t-22 -95.5v-36.5t1 -34.5q5 -52 31 -79.5t73 -27.5zM431 1276l14 65q13 57 -6.5 77
t-90.5 20h-87v123h87q133 0 195 -52.5t35 -167.5l-14 -65h-133z" />
    <glyph glyph-name="uni1EA4" unicode="&#x1ea4;" 
d="M26 0l209 1600h416l209 -1600h-265l-36 367h-232l-36 -367h-265zM351 595h184l-35 352l-29 425h-56l-29 -425zM210 1682l156 265h151l155 -265h-168l-62 119l-63 -119h-169zM644 1925l180 265h169l-189 -265h-160z" />
    <glyph glyph-name="uni1EA5" unicode="&#x1ea5;" horiz-adv-x="887" 
d="M315 -15q-124 0 -182.5 62.5t-71.5 209.5q-1 20 -1 46t1 46q6 79 34.5 136t88.5 101.5t159 83.5q52 22 101 37.5t102 30.5v180q0 52 -21 79t-81 27q-51 0 -72.5 -22t-24.5 -76q-1 -17 -1.5 -50.5t0 -68.5t1.5 -56h-251q-1 18 -2 64.5t0 81.5q5 112 40 183t111.5 104.5
t205.5 33.5q135 0 211.5 -37t108 -116.5t31.5 -207.5l-1 -857h-258v124h-34q-32 -71 -75 -105t-119 -34zM420 171q42 0 74 24t51 65v307q-36 -9 -70 -21.5t-66 -30.5q-53 -28 -72 -70.5t-22 -95.5v-36.5t1 -34.5q5 -52 31 -79.5t73 -27.5zM217 1282l156 265h151l155 -265
h-168l-62 119l-63 -119h-169zM650 1525l180 265h169l-189 -265h-160z" />
    <glyph glyph-name="uni1EA6" unicode="&#x1ea6;" 
d="M26 0l209 1600h416l209 -1600h-265l-36 367h-232l-36 -367h-265zM351 595h184l-35 352l-29 425h-56l-29 -425zM210 1682l156 265h151l155 -265h-168l-62 119l-63 -119h-169zM696 1925l-172 265h169l164 -265h-161z" />
    <glyph glyph-name="uni1EA7" unicode="&#x1ea7;" horiz-adv-x="887" 
d="M315 -15q-124 0 -182.5 62.5t-71.5 209.5q-1 20 -1 46t1 46q6 79 34.5 136t88.5 101.5t159 83.5q52 22 101 37.5t102 30.5v180q0 52 -21 79t-81 27q-51 0 -72.5 -22t-24.5 -76q-1 -17 -1.5 -50.5t0 -68.5t1.5 -56h-251q-1 18 -2 64.5t0 81.5q5 112 40 183t111.5 104.5
t205.5 33.5q135 0 211.5 -37t108 -116.5t31.5 -207.5l-1 -857h-258v124h-34q-32 -71 -75 -105t-119 -34zM420 171q42 0 74 24t51 65v307q-36 -9 -70 -21.5t-66 -30.5q-53 -28 -72 -70.5t-22 -95.5v-36.5t1 -34.5q5 -52 31 -79.5t73 -27.5zM217 1282l156 265h151l155 -265
h-168l-62 119l-63 -119h-169zM703 1525l-172 265h169l164 -265h-161z" />
    <glyph glyph-name="uni1EA8" unicode="&#x1ea8;" 
d="M26 0l209 1600h416l209 -1600h-265l-36 367h-232l-36 -367h-265zM351 595h184l-35 352l-29 425h-56l-29 -425zM210 1682l156 265h151l155 -265h-168l-62 119l-63 -119h-169zM645 1903l14 65q13 57 -6.5 77t-90.5 20h-87v123h87q133 0 195 -52.5t35 -167.5l-14 -65h-133z
" />
    <glyph glyph-name="uni1EA9" unicode="&#x1ea9;" horiz-adv-x="887" 
d="M315 -15q-124 0 -182.5 62.5t-71.5 209.5q-1 20 -1 46t1 46q6 79 34.5 136t88.5 101.5t159 83.5q52 22 101 37.5t102 30.5v180q0 52 -21 79t-81 27q-51 0 -72.5 -22t-24.5 -76q-1 -17 -1.5 -50.5t0 -68.5t1.5 -56h-251q-1 18 -2 64.5t0 81.5q5 112 40 183t111.5 104.5
t205.5 33.5q135 0 211.5 -37t108 -116.5t31.5 -207.5l-1 -857h-258v124h-34q-32 -71 -75 -105t-119 -34zM420 171q42 0 74 24t51 65v307q-36 -9 -70 -21.5t-66 -30.5q-53 -28 -72 -70.5t-22 -95.5v-36.5t1 -34.5q5 -52 31 -79.5t73 -27.5zM217 1282l156 265h151l155 -265
h-168l-62 119l-63 -119h-169zM651 1503l14 65q13 57 -6.5 77t-90.5 20h-87v123h87q133 0 195 -52.5t35 -167.5l-14 -65h-133z" />
    <glyph glyph-name="uni1EAA" unicode="&#x1eaa;" 
d="M26 0l209 1600h416l209 -1600h-265l-36 367h-232l-36 -367h-265zM351 595h184l-35 352l-29 425h-56l-29 -425zM210 1682l156 265h151l155 -265h-168l-62 119l-63 -119h-169zM604 2198h100q-5 -103 -40.5 -151.5t-102.5 -48.5q-41 0 -65 13.5t-40.5 31t-34 31t-44.5 13.5
q-30 0 -39.5 -20.5t-12.5 -57.5h-100q7 112 45 161t105 49q41 0 66.5 -13t42.5 -30.5t34 -31t42 -13.5t33.5 17t10.5 50z" />
    <glyph glyph-name="uni1EAB" unicode="&#x1eab;" horiz-adv-x="887" 
d="M315 -15q-124 0 -182.5 62.5t-71.5 209.5q-1 20 -1 46t1 46q6 79 34.5 136t88.5 101.5t159 83.5q52 22 101 37.5t102 30.5v180q0 52 -21 79t-81 27q-51 0 -72.5 -22t-24.5 -76q-1 -17 -1.5 -50.5t0 -68.5t1.5 -56h-251q-1 18 -2 64.5t0 81.5q5 112 40 183t111.5 104.5
t205.5 33.5q135 0 211.5 -37t108 -116.5t31.5 -207.5l-1 -857h-258v124h-34q-32 -71 -75 -105t-119 -34zM420 171q42 0 74 24t51 65v307q-36 -9 -70 -21.5t-66 -30.5q-53 -28 -72 -70.5t-22 -95.5v-36.5t1 -34.5q5 -52 31 -79.5t73 -27.5zM217 1282l156 265h151l155 -265
h-168l-62 119l-63 -119h-169zM610 1798h100q-5 -103 -40.5 -151.5t-102.5 -48.5q-41 0 -65 13.5t-40.5 31t-34 31t-44.5 13.5q-30 0 -39.5 -20.5t-12.5 -57.5h-100q7 112 45 161t105 49q41 0 66.5 -13t42.5 -30.5t34 -31t42 -13.5t33.5 17t10.5 50z" />
    <glyph glyph-name="uni1EAC" unicode="&#x1eac;" 
d="M26 0l209 1600h416l209 -1600h-265l-36 367h-232l-36 -367h-265zM351 595h184l-35 352l-29 425h-56l-29 -425zM355 -256v176h176v-176h-176zM210 1682l156 265h151l155 -265h-168l-62 119l-63 -119h-169z" />
    <glyph glyph-name="uni1EAD" unicode="&#x1ead;" horiz-adv-x="887" 
d="M315 -15q-124 0 -182.5 62.5t-71.5 209.5q-1 20 -1 46t1 46q6 79 34.5 136t88.5 101.5t159 83.5q52 22 101 37.5t102 30.5v180q0 52 -21 79t-81 27q-51 0 -72.5 -22t-24.5 -76q-1 -17 -1.5 -50.5t0 -68.5t1.5 -56h-251q-1 18 -2 64.5t0 81.5q5 112 40 183t111.5 104.5
t205.5 33.5q135 0 211.5 -37t108 -116.5t31.5 -207.5l-1 -857h-258v124h-34q-32 -71 -75 -105t-119 -34zM420 171q42 0 74 24t51 65v307q-36 -9 -70 -21.5t-66 -30.5q-53 -28 -72 -70.5t-22 -95.5v-36.5t1 -34.5q5 -52 31 -79.5t73 -27.5zM344 -256v176h176v-176h-176z
M217 1282l156 265h151l155 -265h-168l-62 119l-63 -119h-169z" />
    <glyph glyph-name="uni1EAE" unicode="&#x1eae;" 
d="M26 0l209 1600h416l209 -1600h-265l-36 367h-232l-36 -367h-265zM351 595h184l-35 352l-29 425h-56l-29 -425zM444 1671q-142 0 -207 63.5t-73 210.5h156q0 -76 28.5 -109t95.5 -33q66 0 94.5 33t29.5 109h155q-9 -147 -73.5 -210.5t-205.5 -63.5zM371 2012l180 265h169
l-189 -265h-160z" />
    <glyph glyph-name="uni1EAF" unicode="&#x1eaf;" horiz-adv-x="887" 
d="M315 -15q-124 0 -182.5 62.5t-71.5 209.5q-1 20 -1 46t1 46q6 79 34.5 136t88.5 101.5t159 83.5q52 22 101 37.5t102 30.5v180q0 52 -21 79t-81 27q-51 0 -72.5 -22t-24.5 -76q-1 -17 -1.5 -50.5t0 -68.5t1.5 -56h-251q-1 18 -2 64.5t0 81.5q5 112 40 183t111.5 104.5
t205.5 33.5q135 0 211.5 -37t108 -116.5t31.5 -207.5l-1 -857h-258v124h-34q-32 -71 -75 -105t-119 -34zM420 171q42 0 74 24t51 65v307q-36 -9 -70 -21.5t-66 -30.5q-53 -28 -72 -70.5t-22 -95.5v-36.5t1 -34.5q5 -52 31 -79.5t73 -27.5zM450 1271q-142 0 -207 63.5
t-73 210.5h156q0 -76 28.5 -109t95.5 -33q66 0 94.5 33t29.5 109h155q-9 -147 -73.5 -210.5t-205.5 -63.5zM377 1612l180 265h169l-189 -265h-160z" />
    <glyph glyph-name="uni1EB0" unicode="&#x1eb0;" 
d="M26 0l209 1600h416l209 -1600h-265l-36 367h-232l-36 -367h-265zM351 595h184l-35 352l-29 425h-56l-29 -425zM444 1671q-142 0 -207 63.5t-73 210.5h156q0 -76 28.5 -109t95.5 -33q66 0 94.5 33t29.5 109h155q-9 -147 -73.5 -210.5t-205.5 -63.5zM337 2012l-172 265h169
l164 -265h-161z" />
    <glyph glyph-name="uni1EB1" unicode="&#x1eb1;" horiz-adv-x="887" 
d="M315 -15q-124 0 -182.5 62.5t-71.5 209.5q-1 20 -1 46t1 46q6 79 34.5 136t88.5 101.5t159 83.5q52 22 101 37.5t102 30.5v180q0 52 -21 79t-81 27q-51 0 -72.5 -22t-24.5 -76q-1 -17 -1.5 -50.5t0 -68.5t1.5 -56h-251q-1 18 -2 64.5t0 81.5q5 112 40 183t111.5 104.5
t205.5 33.5q135 0 211.5 -37t108 -116.5t31.5 -207.5l-1 -857h-258v124h-34q-32 -71 -75 -105t-119 -34zM420 171q42 0 74 24t51 65v307q-36 -9 -70 -21.5t-66 -30.5q-53 -28 -72 -70.5t-22 -95.5v-36.5t1 -34.5q5 -52 31 -79.5t73 -27.5zM450 1271q-142 0 -207 63.5
t-73 210.5h156q0 -76 28.5 -109t95.5 -33q66 0 94.5 33t29.5 109h155q-9 -147 -73.5 -210.5t-205.5 -63.5zM343 1612l-172 265h169l164 -265h-161z" />
    <glyph glyph-name="uni1EB2" unicode="&#x1eb2;" 
d="M26 0l209 1600h416l209 -1600h-265l-36 367h-232l-36 -367h-265zM351 595h184l-35 352l-29 425h-56l-29 -425zM444 1671q-142 0 -207 63.5t-73 210.5h156q0 -76 28.5 -109t95.5 -33q66 0 94.5 33t29.5 109h155q-9 -147 -73.5 -210.5t-205.5 -63.5zM378 1986l14 65
q13 57 -6.5 77t-90.5 20h-87v123h87q133 0 195 -52.5t35 -167.5l-14 -65h-133z" />
    <glyph glyph-name="uni1EB3" unicode="&#x1eb3;" horiz-adv-x="887" 
d="M315 -15q-124 0 -182.5 62.5t-71.5 209.5q-1 20 -1 46t1 46q6 79 34.5 136t88.5 101.5t159 83.5q52 22 101 37.5t102 30.5v180q0 52 -21 79t-81 27q-51 0 -72.5 -22t-24.5 -76q-1 -17 -1.5 -50.5t0 -68.5t1.5 -56h-251q-1 18 -2 64.5t0 81.5q5 112 40 183t111.5 104.5
t205.5 33.5q135 0 211.5 -37t108 -116.5t31.5 -207.5l-1 -857h-258v124h-34q-32 -71 -75 -105t-119 -34zM420 171q42 0 74 24t51 65v307q-36 -9 -70 -21.5t-66 -30.5q-53 -28 -72 -70.5t-22 -95.5v-36.5t1 -34.5q5 -52 31 -79.5t73 -27.5zM450 1271q-142 0 -207 63.5
t-73 210.5h156q0 -76 28.5 -109t95.5 -33q66 0 94.5 33t29.5 109h155q-9 -147 -73.5 -210.5t-205.5 -63.5zM385 1586l14 65q13 57 -6.5 77t-90.5 20h-87v123h87q133 0 195 -52.5t35 -167.5l-14 -65h-133z" />
    <glyph glyph-name="uni1EB4" unicode="&#x1eb4;" 
d="M26 0l209 1600h416l209 -1600h-265l-36 367h-232l-36 -367h-265zM351 595h184l-35 352l-29 425h-56l-29 -425zM444 1671q-142 0 -207 63.5t-73 210.5h156q0 -76 28.5 -109t95.5 -33q66 0 94.5 33t29.5 109h155q-9 -147 -73.5 -210.5t-205.5 -63.5zM583 2221h100
q-5 -103 -40.5 -151.5t-102.5 -48.5q-41 0 -65 13.5t-40.5 31t-34 31t-44.5 13.5q-30 0 -39.5 -20.5t-12.5 -57.5h-100q7 112 45 161t105 49q41 0 66.5 -13t42.5 -30.5t34 -31t42 -13.5t33.5 17t10.5 50z" />
    <glyph glyph-name="uni1EB5" unicode="&#x1eb5;" horiz-adv-x="887" 
d="M315 -15q-124 0 -182.5 62.5t-71.5 209.5q-1 20 -1 46t1 46q6 79 34.5 136t88.5 101.5t159 83.5q52 22 101 37.5t102 30.5v180q0 52 -21 79t-81 27q-51 0 -72.5 -22t-24.5 -76q-1 -17 -1.5 -50.5t0 -68.5t1.5 -56h-251q-1 18 -2 64.5t0 81.5q5 112 40 183t111.5 104.5
t205.5 33.5q135 0 211.5 -37t108 -116.5t31.5 -207.5l-1 -857h-258v124h-34q-32 -71 -75 -105t-119 -34zM420 171q42 0 74 24t51 65v307q-36 -9 -70 -21.5t-66 -30.5q-53 -28 -72 -70.5t-22 -95.5v-36.5t1 -34.5q5 -52 31 -79.5t73 -27.5zM450 1271q-142 0 -207 63.5
t-73 210.5h156q0 -76 28.5 -109t95.5 -33q66 0 94.5 33t29.5 109h155q-9 -147 -73.5 -210.5t-205.5 -63.5zM589 1821h100q-5 -103 -40.5 -151.5t-102.5 -48.5q-41 0 -65 13.5t-40.5 31t-34 31t-44.5 13.5q-30 0 -39.5 -20.5t-12.5 -57.5h-100q7 112 45 161t105 49
q41 0 66.5 -13t42.5 -30.5t34 -31t42 -13.5t33.5 17t10.5 50z" />
    <glyph glyph-name="uni1EB6" unicode="&#x1eb6;" 
d="M26 0l209 1600h416l209 -1600h-265l-36 367h-232l-36 -367h-265zM351 595h184l-35 352l-29 425h-56l-29 -425zM355 -256v176h176v-176h-176zM444 1671q-142 0 -207 63.5t-73 210.5h156q0 -76 28.5 -109t95.5 -33q66 0 94.5 33t29.5 109h155q-9 -147 -73.5 -210.5
t-205.5 -63.5z" />
    <glyph glyph-name="uni1EB7" unicode="&#x1eb7;" horiz-adv-x="887" 
d="M315 -15q-124 0 -182.5 62.5t-71.5 209.5q-1 20 -1 46t1 46q6 79 34.5 136t88.5 101.5t159 83.5q52 22 101 37.5t102 30.5v180q0 52 -21 79t-81 27q-51 0 -72.5 -22t-24.5 -76q-1 -17 -1.5 -50.5t0 -68.5t1.5 -56h-251q-1 18 -2 64.5t0 81.5q5 112 40 183t111.5 104.5
t205.5 33.5q135 0 211.5 -37t108 -116.5t31.5 -207.5l-1 -857h-258v124h-34q-32 -71 -75 -105t-119 -34zM420 171q42 0 74 24t51 65v307q-36 -9 -70 -21.5t-66 -30.5q-53 -28 -72 -70.5t-22 -95.5v-36.5t1 -34.5q5 -52 31 -79.5t73 -27.5zM344 -256v176h176v-176h-176z
M450 1271q-142 0 -207 63.5t-73 210.5h156q0 -76 28.5 -109t95.5 -33q66 0 94.5 33t29.5 109h155q-9 -147 -73.5 -210.5t-205.5 -63.5z" />
    <glyph glyph-name="uni1EB8" unicode="&#x1eb8;" horiz-adv-x="763" 
d="M86 0v1600h632v-228h-373v-446h353v-228h-353v-470h373v-228h-632zM297 -256v176h176v-176h-176z" />
    <glyph glyph-name="uni1EB9" unicode="&#x1eb9;" horiz-adv-x="860" 
d="M443 -18q-187 0 -272.5 76t-95.5 251q-2 46 -3 122.5t-1 163.5t1 165.5t3 126.5q12 179 96.5 255t268.5 76q183 0 265.5 -74.5t90.5 -246.5q1 -24 1.5 -80.5t0 -126.5t-3.5 -134h-464q0 -69 1.5 -137.5t2.5 -136.5q2 -58 27 -82t82 -24q52 0 74.5 24t25.5 82q2 28 2 72.5
t-2 98.5h251q2 -19 3 -64t-1 -80q-8 -175 -89.5 -251t-263.5 -76zM330 736h215v82.5t-0.5 68t-1.5 39.5q-3 52 -26.5 75t-76.5 23q-56 0 -80 -23t-26 -75q-1 -49 -2 -96zM347 -256v176h176v-176h-176z" />
    <glyph glyph-name="uni1EBA" unicode="&#x1eba;" horiz-adv-x="763" 
d="M86 0v1600h632v-228h-373v-446h353v-228h-353v-470h373v-228h-632zM399 1676l14 65q13 57 -6.5 77t-90.5 20h-87v123h87q133 0 195 -52.5t35 -167.5l-14 -65h-133z" />
    <glyph glyph-name="uni1EBB" unicode="&#x1ebb;" horiz-adv-x="860" 
d="M443 -18q-187 0 -272.5 76t-95.5 251q-2 46 -3 122.5t-1 163.5t1 165.5t3 126.5q12 179 96.5 255t268.5 76q183 0 265.5 -74.5t90.5 -246.5q1 -24 1.5 -80.5t0 -126.5t-3.5 -134h-464q0 -69 1.5 -137.5t2.5 -136.5q2 -58 27 -82t82 -24q52 0 74.5 24t25.5 82q2 28 2 72.5
t-2 98.5h251q2 -19 3 -64t-1 -80q-8 -175 -89.5 -251t-263.5 -76zM330 736h215v82.5t-0.5 68t-1.5 39.5q-3 52 -26.5 75t-76.5 23q-56 0 -80 -23t-26 -75q-1 -49 -2 -96zM446 1276l14 65q13 57 -6.5 77t-90.5 20h-87v123h87q133 0 195 -52.5t35 -167.5l-14 -65h-133z" />
    <glyph glyph-name="uni1EBC" unicode="&#x1ebc;" horiz-adv-x="763" 
d="M86 0v1600h632v-228h-373v-446h353v-228h-353v-470h373v-228h-632zM525 1879h100q-5 -103 -40.5 -151.5t-102.5 -48.5q-41 0 -65 13.5t-40.5 31t-34 31t-44.5 13.5q-30 0 -39.5 -20.5t-12.5 -57.5h-100q7 112 45 161t105 49q41 0 66.5 -13t42.5 -30.5t34 -31t42 -13.5
t33.5 17t10.5 50z" />
    <glyph glyph-name="uni1EBD" unicode="&#x1ebd;" horiz-adv-x="860" 
d="M443 -18q-187 0 -272.5 76t-95.5 251q-2 46 -3 122.5t-1 163.5t1 165.5t3 126.5q12 179 96.5 255t268.5 76q183 0 265.5 -74.5t90.5 -246.5q1 -24 1.5 -80.5t0 -126.5t-3.5 -134h-464q0 -69 1.5 -137.5t2.5 -136.5q2 -58 27 -82t82 -24q52 0 74.5 24t25.5 82q2 28 2 72.5
t-2 98.5h251q2 -19 3 -64t-1 -80q-8 -175 -89.5 -251t-263.5 -76zM330 736h215v82.5t-0.5 68t-1.5 39.5q-3 52 -26.5 75t-76.5 23q-56 0 -80 -23t-26 -75q-1 -49 -2 -96zM576 1479h100q-5 -103 -40.5 -151.5t-102.5 -48.5q-41 0 -65 13.5t-40.5 31t-34 31t-44.5 13.5
q-30 0 -39.5 -20.5t-12.5 -57.5h-100q7 112 45 161t105 49q41 0 66.5 -13t42.5 -30.5t34 -31t42 -13.5t33.5 17t10.5 50z" />
    <glyph glyph-name="uni1EBE" unicode="&#x1ebe;" horiz-adv-x="763" 
d="M86 0v1600h632v-228h-373v-446h353v-228h-353v-470h373v-228h-632zM152 1682l156 265h151l155 -265h-168l-62 119l-63 -119h-169zM585 1925l180 265h169l-189 -265h-160z" />
    <glyph glyph-name="uni1EBF" unicode="&#x1ebf;" horiz-adv-x="860" 
d="M443 -18q-187 0 -272.5 76t-95.5 251q-2 46 -3 122.5t-1 163.5t1 165.5t3 126.5q12 179 96.5 255t268.5 76q183 0 265.5 -74.5t90.5 -246.5q1 -24 1.5 -80.5t0 -126.5t-3.5 -134h-464q0 -69 1.5 -137.5t2.5 -136.5q2 -58 27 -82t82 -24q52 0 74.5 24t25.5 82q2 28 2 72.5
t-2 98.5h251q2 -19 3 -64t-1 -80q-8 -175 -89.5 -251t-263.5 -76zM330 736h215v82.5t-0.5 68t-1.5 39.5q-3 52 -26.5 75t-76.5 23q-56 0 -80 -23t-26 -75q-1 -49 -2 -96zM203 1282l156 265h151l155 -265h-168l-62 119l-63 -119h-169zM636 1525l180 265h169l-189 -265h-160z
" />
    <glyph glyph-name="uni1EC0" unicode="&#x1ec0;" horiz-adv-x="763" 
d="M86 0v1600h632v-228h-373v-446h353v-228h-353v-470h373v-228h-632zM152 1682l156 265h151l155 -265h-168l-62 119l-63 -119h-169zM638 1925l-172 265h169l164 -265h-161z" />
    </font>
</defs>
</svg>
