<?xml version="1.0" standalone="no"?>
<!DOCTYPE svg PUBLIC "-//W3C//DTD SVG 1.1//EN" "http://www.w3.org/Graphics/SVG/1.1/DTD/svg11.dtd" >
<svg xmlns="http://www.w3.org/2000/svg" xmlns:xlink="http://www.w3.org/1999/xlink" version="1.1">
<metadata>
Created by FontForge 20170910 at Sun Jul 11 10:59:46 2010
 By Jimmy Wärting
Copyright 2000-2007 Dalton Maag Ltd. All rights reserved. No modification without the prior permission of Dalton Maag Ltd.
</metadata>
<defs>
<font id="InterFaceCorp-Regular" horiz-adv-x="300" >
  <font-face 
    font-family="InterFace Corp"
    font-weight="400"
    font-stretch="normal"
    units-per-em="1000"
    panose-1="2 11 5 3 3 2 3 2 2 4"
    ascent="800"
    descent="-200"
    x-height="477"
    cap-height="667"
    bbox="-239 -223 1106 899"
    underline-thickness="20"
    underline-position="-133"
    unicode-range="U+0008-FB04"
  />
<missing-glyph horiz-adv-x="500" 
d="M50 0v750h400v-750h-400zM400 50v650h-300v-650h300z" />
    <glyph glyph-name="f_b" unicode="fb" horiz-adv-x="827" 
d="M90 0v414h-70v63h70v17q0 49 16 84.5t45 58t68.5 33t86.5 10.5q45 0 84 -9t59 -17v-192q31 14 59.5 20t56.5 6q46 0 86 -16.5t68.5 -48t45 -78t16.5 -107.5q0 -57 -18 -103t-50 -78.5t-75.5 -50t-94.5 -17.5q-55 0 -98.5 11.5t-72.5 24.5v578q-12 5 -31.5 8t-40.5 3
q-27 0 -51 -5.5t-42 -19t-29 -37.5t-11 -61v-14h114v-63h-113v-414h-78zM449 68q19 -8 41 -13t42 -5q40 0 72.5 13.5t55 38.5t34.5 60t12 78t-12 77.5t-33 58.5t-49 36.5t-61 12.5q-24 0 -50 -6.5t-52 -23.5v-327z" />
    <glyph glyph-name="f_j" unicode="fj" horiz-adv-x="491" 
d="M90 0v414h-70v63h71v35q0 43 13.5 75t36 52.5t52.5 30.5t63 10q55 0 87.5 -15.5t54.5 -34.5l-37 -51q-17 14 -43 27t-61 13q-42 0 -66 -24t-24 -84v-34h114v-63h-113v-414h-78zM275 -142q18 13 31.5 26.5t21.5 29.5t12 36.5t4 47.5v479h78v-479q0 -77 -29 -121.5
t-80 -73.5z" />
    <glyph glyph-name="f_k" unicode="fk" horiz-adv-x="780" 
d="M90 0v414h-70v63h70v17q0 49 16 84.5t45 58t68.5 33t86.5 10.5q45 0 84 -9t59 -17v-358l193 181h98l-163 -154l205 -323h-89l-173 270l-71 -65v-205h-77v603q-12 5 -31.5 8t-40.5 3q-27 0 -51 -5.5t-42 -19t-29 -37.5t-11 -61v-14h114v-63h-113v-414h-78z" />
    <glyph glyph-name="f_t" unicode="ft" horiz-adv-x="621" 
d="M90 0v414h-70v63h71v35q0 46 10.5 78t29.5 52t45 29t58 9q38 0 64.5 -7.5t46.5 -18.5l-23 -59q-17 8 -37.5 14.5t-46.5 6.5q-17 0 -30 -4t-22 -15.5t-14 -32t-5 -53.5v-34h227v130h77v-130h125v-63h-126v-305q0 -35 13.5 -46.5t34.5 -11.5q19 0 36 8t31 19l30 -52
q-23 -17 -45.5 -27t-63.5 -10q-54 0 -83 27.5t-29 84.5v313h-226v-414h-78z" />
    <glyph glyph-name="f_h" unicode="fh" horiz-adv-x="842" 
d="M90 0v414h-70v63h70v17q0 49 16 84.5t45 58t68.5 33t86.5 10.5q45 0 84 -9t59 -17v-215q29 21 66 35.5t83 14.5q97 0 137.5 -49t40.5 -143v-297h-78v298q0 66 -27 97.5t-87 31.5q-38 0 -73.5 -17.5t-61.5 -36.5v-373h-77v603q-12 5 -31.5 8t-40.5 3q-27 0 -51 -5.5
t-42 -19t-29 -37.5t-11 -61v-14h114v-63h-113v-414h-78z" />
    <glyph glyph-name="f_f" unicode="ff" horiz-adv-x="586" 
d="M90 0v414h-70v63h71v35q0 46 10.5 78t29.5 52t45 29t58 9q38 0 64.5 -7.5t46.5 -18.5l-23 -59q-17 8 -37.5 14.5t-46.5 6.5q-17 0 -30 -4t-22 -15.5t-14 -32t-5 -53.5v-34h217v35q0 46 10.5 78t29.5 52t45 29t58 9q38 0 64.5 -7.5t46.5 -18.5l-23 -59q-17 8 -37.5 14.5
t-46.5 6.5q-17 0 -30 -4t-22 -15.5t-14 -32t-5 -53.5v-34h114v-63h-113v-414h-78v414h-215v-414h-78z" />
    <glyph glyph-name="f_i" unicode="fi" horiz-adv-x="490" 
d="M344 0v477h77v-477h-77zM90 0v414h-70v63h71v35q0 43 13.5 75t36 52.5t52.5 30.5t63 10q55 0 87.5 -15.5t54.5 -34.5l-37 -51q-17 14 -43 27t-61 13q-42 0 -66 -24t-24 -84v-34h114v-63h-113v-414h-78z" />
    <glyph glyph-name="f_l" unicode="fl" horiz-adv-x="519" 
d="M90 0v414h-70v63h70v17q0 49 16 84.5t45 58t68.5 33t86.5 10.5q45 0 84.5 -9t59.5 -17v-654h-78v603q-12 5 -31.5 8t-40.5 3q-27 0 -51 -5.5t-42 -19t-29 -37.5t-11 -61v-14h114v-63h-113v-414h-78z" />
    <glyph glyph-name="f_f_i" unicode="ffi" horiz-adv-x="771" 
d="M90 0v414h-70v63h71v35q0 46 10.5 78t29.5 52t45 29t58 9q38 0 64.5 -7.5t46.5 -18.5l-23 -59q-17 8 -37.5 14.5t-46.5 6.5q-17 0 -30 -4t-22 -15.5t-14 -32t-5 -53.5v-34h217v35q0 43 13.5 75t36 52.5t52.5 30.5t63 10q55 0 87.5 -15.5t54.5 -34.5l-37 -51
q-17 14 -43 27t-61 13q-42 0 -66 -24t-24 -84v-34h114v-63h-113v-414h-78v414h-215v-414h-78zM637 0v477h77v-477h-77z" />
    <glyph glyph-name="f_f_l" unicode="ffl" horiz-adv-x="812" 
d="M90 0v414h-70v63h71v35q0 46 10.5 78t29.5 52t45 29t58 9q38 0 64.5 -7.5t46.5 -18.5l-23 -59q-17 8 -37.5 14.5t-46.5 6.5q-17 0 -30 -4t-22 -15.5t-14 -32t-5 -53.5v-34h216v17q0 49 16 84.5t45 58t68.5 33t86.5 10.5q45 0 84.5 -9t59.5 -17v-654h-78v603
q-12 5 -31.5 8t-40.5 3q-27 0 -51 -5.5t-42 -19t-29 -37.5t-11 -61v-14h114v-63h-113v-414h-78v414h-215v-414h-78z" />
    <glyph glyph-name=".notdef" horiz-adv-x="500" 
d="M50 0v750h400v-750h-400zM400 50v650h-300v-650h300z" />
    <glyph glyph-name=".null" horiz-adv-x="0" 
 />
    <glyph glyph-name=".null" horiz-adv-x="0" 
 />
    <glyph glyph-name=".null" horiz-adv-x="0" 
 />
    <glyph glyph-name="nonmarkingreturn" unicode="&#x9;" horiz-adv-x="200" 
 />
    <glyph glyph-name="nonmarkingreturn" unicode="&#xd;" horiz-adv-x="200" 
 />
    <glyph glyph-name="space" unicode=" " horiz-adv-x="200" 
 />
    <glyph glyph-name="exclam" unicode="!" horiz-adv-x="198" 
d="M62 223v444h76v-444h-76zM99 -11q-23 0 -38.5 17.5t-15.5 42.5t15.5 42.5t38.5 17.5t38.5 -17.5t15.5 -42.5t-15.5 -42.5t-38.5 -17.5z" />
    <glyph glyph-name="quotedbl" unicode="&#x22;" horiz-adv-x="319" 
d="M197 371v296h72v-296h-72zM50 371v296h72v-296h-72z" />
    <glyph glyph-name="numbersign" unicode="#" horiz-adv-x="592" 
d="M168 74v168h-168v68h168v121h-168v67h168v169h68v-169h120v169h68v-169h168v-67h-168v-121h168v-68h-168v-168h-68v168h-120v-168h-68zM236 310h120v121h-120v-121z" />
    <glyph glyph-name="dollar" unicode="$" horiz-adv-x="540" 
d="M236 -147v135q-31 0 -61.5 8.5t-56.5 23t-46.5 35t-32.5 45.5l61 37q40 -79 136 -82v270q-35 15 -66.5 32t-55.5 39.5t-38 51.5t-14 68q0 37 14 66.5t37.5 50t55 32.5t67.5 14v132h64v-132q69 -5 113 -36.5t65 -73.5l-60 -32q-19 32 -46 51t-72 24v-230
q46 -22 80.5 -42.5t57.5 -43.5t34 -51.5t11 -66.5q0 -42 -14 -75.5t-38.5 -57.5t-58 -38.5t-72.5 -18.5v-135h-64zM236 613q-42 -3 -70 -26.5t-28 -65.5q0 -25 8 -43t21.5 -31.5t31 -24t37.5 -19.5v210zM300 54q43 4 74 34.5t31 84.5q0 45 -27 74t-78 55v-248z" />
    <glyph glyph-name="percent" unicode="%" horiz-adv-x="740" 
d="M501 5q-27 12 -47.5 33t-32.5 48.5t-12 59.5q0 31 12 59t32.5 49t48 33t59.5 12t60 -12t48.5 -33t32.5 -49t12 -59q0 -32 -12 -59.5t-32.5 -48.5t-48.5 -33t-60 -12t-60 12zM126 379q-27 12 -47.5 33t-32.5 48.5t-12 59.5q0 31 12 59t32.5 49t48 33t59.5 12t60 -12
t48.5 -33t32.5 -49t12 -59q0 -32 -12 -59.5t-32.5 -48.5t-48.5 -33t-60 -12t-60 12zM75 -7l-49 52l634 626l47 -48zM498 83q12 -12 28 -19.5t34 -7.5t34 7.5t28 20t19 29t7 34.5t-7 34.5t-19 29t-28 20t-34 7.5t-34 -7.5t-27.5 -20t-18.5 -29t-7 -34.5t7 -34.5t18 -29.5z
M123 457q12 -12 28 -19.5t34 -7.5t34 7.5t28 20t19 29t7 34.5t-7 34.5t-19 29t-28 20t-34 7.5t-34 -7.5t-27.5 -20t-18.5 -29t-7 -34.5t7 -34.5t18 -29.5z" />
    <glyph glyph-name="ampersand" unicode="&#x26;" horiz-adv-x="614" 
d="M505 0l-83 115q-16 -26 -35 -48.5t-42.5 -40t-52 -27.5t-64.5 -10q-44 0 -78.5 16t-58.5 43t-36.5 61.5t-12.5 72.5q0 69 37 127.5t121 97.5l-23 34q-15 23 -27 47t-12 53q0 30 11.5 54.5t31.5 41.5t46.5 26t55.5 9q28 0 53.5 -8.5t44.5 -25t30.5 -40.5t11.5 -54
q0 -54 -32.5 -93.5t-86.5 -63.5l111 -150l30 58t31 55.5t33.5 49t37.5 37.5l38 -56q-40 -34 -68.5 -88.5t-57.5 -111.5l129 -181h-83zM268 438q37 16 61.5 42t24.5 64q0 32 -21 52t-51 20q-31 0 -50.5 -20t-19.5 -50q0 -18 10.5 -37t21.5 -36zM238 356q-63 -32 -92.5 -76.5
t-29.5 -98.5q0 -25 8 -47.5t22.5 -40t35.5 -28t48 -10.5q25 0 45.5 9t38.5 24.5t33 36t29 43.5z" />
    <glyph glyph-name="quotesingle" unicode="'" horiz-adv-x="170" 
d="M50 371v296h70v-296h-70z" />
    <glyph glyph-name="parenleft" unicode="(" horiz-adv-x="264" 
d="M247 -48q-44 24 -81.5 60t-64.5 85t-42 109.5t-15 134.5q0 73 15 134t42 110t64.5 85t81.5 59l23 -49q-32 -24 -59 -56t-46.5 -73.5t-30.5 -93.5t-11 -116q0 -128 41.5 -210t105.5 -130z" />
    <glyph glyph-name="parenright" unicode=")" horiz-adv-x="264" 
d="M-6 1q32 24 59 56.5t46.5 74.5t30.5 94t11 115q0 64 -11 116t-30.5 93.5t-46.5 73.5t-59 56l23 49q44 -23 81.5 -59t64.5 -85t42 -110t15 -134q0 -74 -15 -134.5t-42 -109.5t-64.5 -85t-81.5 -60z" />
    <glyph glyph-name="asterisk" unicode="*" horiz-adv-x="425" 
d="M63 398l-28 53l127 84l-127 87l31 50l117 -80v133h57v-133l119 79l31 -48l-128 -87l127 -87l-28 -52l-121 82v-140h-57v140z" />
    <glyph glyph-name="plus" unicode="+" horiz-adv-x="540" 
d="M235 77v220h-201v70h201v219h70v-219h201v-70h-201v-220h-70z" />
    <glyph glyph-name="comma" unicode="," horiz-adv-x="204" 
d="M13 -66q18 5 40.5 20.5t30.5 33.5q-12 5 -22.5 20.5t-10.5 42.5q0 25 15 44t38 19q24 0 39.5 -19.5t15.5 -51.5q0 -25 -12.5 -47.5t-32.5 -41.5t-44 -32.5t-48 -20.5z" />
    <glyph glyph-name="hyphen" unicode="-" horiz-adv-x="307" 
d="M45 225v71h217v-71h-217z" />
    <glyph glyph-name="period" unicode="." horiz-adv-x="198" 
d="M99 -11q-23 0 -38.5 17.5t-15.5 42.5t15.5 42.5t38.5 17.5t38.5 -17.5t15.5 -42.5t-15.5 -42.5t-38.5 -17.5z" />
    <glyph glyph-name="slash" unicode="/" horiz-adv-x="480" 
d="M0 13l421 745l59 -33l-419 -748z" />
    <glyph glyph-name="zero" unicode="0" horiz-adv-x="540" 
d="M163 16q-44 30 -73.5 78.5t-43.5 110t-14 125.5t14 125.5t43.5 110t74 78t106.5 29.5q61 0 106 -29.5t74.5 -78t43.5 -110t14 -125.5t-14.5 -125.5t-43.5 -110t-74 -78.5t-106 -30q-62 0 -107 30zM152 144q19 -39 48 -63t70 -24q40 0 69 24t47.5 63t27.5 88t9 99
t-8.5 98.5t-27.5 86.5t-48 61.5t-69 23.5q-41 0 -70 -23.5t-48 -61.5t-27.5 -86.5t-8.5 -98.5t9 -99t27 -88z" />
    <glyph glyph-name="one" unicode="1" horiz-adv-x="540" 
d="M268 0v569l-150 -96l-39 55l200 132h70v-660h-81z" />
    <glyph glyph-name="two" unicode="2" horiz-adv-x="540" 
d="M75 0v47q55 63 105 121t92 112q24 31 43 57.5t32 51t19.5 48t6.5 49.5q0 57 -29.5 86.5t-77.5 29.5q-91 0 -149 -100l-63 37q35 64 88 99t129 35q43 0 77.5 -13t59 -36.5t38 -56t13.5 -71.5q0 -65 -32 -122.5t-76 -113.5q-39 -51 -81 -98.5t-84 -93.5h290v-68h-401z" />
    <glyph glyph-name="three" unicode="3" horiz-adv-x="540" 
d="M101 145q26 -46 64.5 -67t78.5 -21q27 0 52.5 9t45 25.5t31 40t11.5 52.5q0 31 -12 54.5t-31.5 39.5t-46 24.5t-54.5 10.5v60q25 2 49 10t43 23t30 36t11 49q0 25 -10 45.5t-27 34.5t-39 21.5t-46 7.5q-42 0 -76.5 -22.5t-53.5 -60.5l-63 39q29 57 84 87t118 30
q38 0 73.5 -12.5t63 -35t44 -55t16.5 -72.5q0 -58 -27.5 -96.5t-69.5 -55.5q22 -9 41.5 -22t34.5 -32t23.5 -45.5t8.5 -61.5q0 -48 -19 -84.5t-50 -62t-71 -38.5t-82 -13q-31 0 -61 7t-57.5 22t-50.5 37.5t-39 52.5z" />
    <glyph glyph-name="four" unicode="4" horiz-adv-x="540" 
d="M39 205v71l328 383h51v-387h72v-67h-72v-205h-75v205h-304zM124 272h219v252z" />
    <glyph glyph-name="five" unicode="5" horiz-adv-x="540" 
d="M126 130q41 -71 137 -71q63 0 102.5 37t39.5 107q0 78 -61.5 119.5t-173.5 41.5h-73v295h355v-68h-280v-159h8q63 0 118 -12t95.5 -39t64 -71t23.5 -108q0 -53 -17 -93t-47 -67t-70 -41t-85 -14q-63 0 -116 25.5t-82 77.5z" />
    <glyph glyph-name="six" unicode="6" horiz-adv-x="540" 
d="M423 608q-43 -8 -83 -27t-73.5 -47.5t-58.5 -64t-39 -76.5q26 17 57 27t66 10q47 0 83.5 -18t61.5 -49t38 -71t13 -85t-14 -85t-40.5 -70t-64.5 -47.5t-85 -17.5q-57 0 -98 22.5t-67 59.5t-38.5 84.5t-12.5 97.5q0 81 23.5 152t68 126t107 92t140.5 50zM210 350
q-30 -11 -54 -29q-6 -35 -6 -70q0 -32 6.5 -67t22 -64t41.5 -47.5t65 -18.5q31 0 54.5 13t39 34.5t23 48.5t7.5 55q0 31 -8.5 59.5t-25 50t-41.5 34t-58 12.5q-35 0 -66 -11z" />
    <glyph glyph-name="seven" unicode="7" horiz-adv-x="540" 
d="M160 0l244 591h-366v68h457v-54l-251 -605h-84z" />
    <glyph glyph-name="eight" unicode="8" horiz-adv-x="540" 
d="M84 276q24 43 72 68q-39 26 -62.5 66t-23.5 85t17.5 78t46 55.5t64 33.5t72.5 11t72.5 -11t63.5 -32.5t45 -54t17 -75.5q0 -48 -22.5 -87.5t-60.5 -67.5q46 -23 70 -67.5t24 -95.5q0 -49 -18 -85.5t-47.5 -61t-67 -36.5t-76.5 -12t-76.5 12t-67.5 36.5t-48 61t-18 84.5
q0 52 24 95zM158 443q11 -22 28.5 -37t39 -22.5t43.5 -7.5t44 8t39 23t28 37t11 51q0 28 -10.5 49t-28 35t-39 20.5t-43.5 6.5t-44 -7t-39 -20.5t-28 -34.5t-11 -49q0 -29 10 -52zM149 126q12 -23 31 -38.5t43 -23.5t48 -8t47.5 7.5t42 23t30 38.5t11.5 55q0 31 -11.5 55
t-30.5 41t-43 26t-48 9t-47.5 -9t-42.5 -25.5t-30.5 -40.5t-11.5 -54q0 -32 12 -56z" />
    <glyph glyph-name="nine" unicode="9" horiz-adv-x="540" 
d="M119 52q45 10 86 29t74.5 46t59.5 61.5t41 75.5q-26 -17 -56 -26.5t-66 -9.5q-47 0 -83 18.5t-61 50t-38 71.5t-13 84q0 46 14 86t40.5 70t64 47.5t84.5 17.5q55 0 96 -22.5t67.5 -60t39.5 -85t13 -97.5q0 -80 -25 -150.5t-70.5 -126t-109.5 -92.5t-142 -50zM336 306
q31 12 57 31q6 34 6 72q0 32 -6 66.5t-21.5 63.5t-41.5 47.5t-65 18.5q-32 0 -55.5 -13t-39 -34.5t-23.5 -48.5t-8 -55q0 -32 8.5 -60.5t25 -50.5t42 -35t59.5 -13q32 0 62 11z" />
    <glyph glyph-name="colon" unicode=":" horiz-adv-x="198" 
d="M99 356q-23 0 -38.5 17.5t-15.5 43.5q0 25 15.5 42.5t38.5 17.5t38.5 -17.5t15.5 -42.5q0 -26 -15.5 -43.5t-38.5 -17.5zM99 -11q-23 0 -38.5 17.5t-15.5 42.5t15.5 42.5t38.5 17.5t38.5 -17.5t15.5 -42.5t-15.5 -42.5t-38.5 -17.5z" />
    <glyph glyph-name="semicolon" unicode=";" horiz-adv-x="204" 
d="M103 356q-23 0 -38.5 17.5t-15.5 43.5q0 25 15.5 42.5t38.5 17.5q22 0 37.5 -17.5t15.5 -42.5q0 -26 -15.5 -43.5t-37.5 -17.5zM13 -66q18 5 40.5 20.5t30.5 33.5q-12 5 -22.5 20.5t-10.5 42.5q0 25 15 44t38 19q24 0 39.5 -19.5t15.5 -51.5q0 -25 -12.5 -47.5
t-32.5 -41.5t-44 -32.5t-48 -20.5z" />
    <glyph glyph-name="less" unicode="&#x3c;" horiz-adv-x="540" 
d="M54 304v58l411 158l26 -69l-310 -116l323 -125l-28 -72z" />
    <glyph glyph-name="equal" unicode="=" horiz-adv-x="540" 
d="M34 373v69h472v-69h-472zM34 148v70h472v-70h-472z" />
    <glyph glyph-name="greater" unicode="&#x3e;" horiz-adv-x="540" 
d="M82 138l-28 72l323 125l-310 116l26 69l411 -158v-58z" />
    <glyph glyph-name="question" unicode="?" horiz-adv-x="390" 
d="M148 184v42q0 47 23 81t51 63q17 18 30.5 33.5t23 30.5t14.5 32t5 38q0 51 -27 78t-78 27q-45 0 -79 -26.5t-60 -64.5l-53 38q13 21 31 42t41.5 37.5t54 27t68.5 10.5q90 0 135.5 -46.5t45.5 -127.5q0 -45 -21.5 -81.5t-50.5 -68.5q-22 -25 -37.5 -42.5t-25 -32
t-13.5 -27t-4 -27.5v-36h-74zM185 -11q-23 0 -38.5 17.5t-15.5 42.5t15.5 42.5t38.5 17.5t38.5 -17.5t15.5 -42.5t-15.5 -42.5t-38.5 -17.5z" />
    <glyph glyph-name="at" unicode="@" horiz-adv-x="783" 
d="M158 -51q-19 22 -37.5 54t-33.5 71t-24 83t-9 90q0 103 24 183.5t71 136t116.5 84.5t161.5 29q77 0 128 -18.5t81 -48t42 -65.5t12 -72v-490q0 -35 17.5 -51.5t48.5 -16.5q23 0 37 6t25 12l21 -59q-13 -7 -38 -14.5t-59 -7.5q-55 0 -91.5 31.5t-36.5 99.5v76
q-22 -17 -56.5 -28.5t-72.5 -11.5q-41 0 -75 15.5t-59 44t-39 68t-14 87.5t14.5 86.5t39.5 65.5t59 41.5t74 14.5q42 0 74 -10.5t55 -24.5v58q0 72 -45.5 109t-141.5 37q-77 0 -132.5 -25.5t-91 -73t-52.5 -116t-17 -155.5q0 -37 7.5 -73.5t19.5 -69.5t27.5 -60.5
t31.5 -47.5zM613 344q-22 11 -49 21t-70 10q-55 0 -85 -36t-30 -102q0 -32 7.5 -59t21.5 -47t34 -31.5t46 -11.5q42 0 72 10t53 27v219z" />
    <glyph glyph-name="A" unicode="A" horiz-adv-x="568" 
d="M0 0l257 667h49l262 -667h-87l-79 206h-242l-76 -206h-84zM186 277h190l-97 255z" />
    <glyph glyph-name="B" unicode="B" horiz-adv-x="537" 
d="M81 0v667h190q100 0 151 -46t51 -124q0 -64 -36.5 -98.5t-93.5 -44.5q28 -3 57.5 -13t53 -29.5t38.5 -50t15 -75.5q0 -43 -14.5 -77.5t-40 -58.5t-61.5 -37t-78 -13h-232zM161 384h103q60 0 92.5 32t32.5 84q0 98 -115 98h-113v-214zM161 69h148q51 0 82 29.5t31 89.5
q0 127 -155 127h-106v-246z" />
    <glyph glyph-name="C" unicode="C" horiz-adv-x="569" 
d="M541 121q-13 -24 -32 -48t-45 -43t-60 -31t-77 -12q-59 0 -109.5 19.5t-88 61t-59 106.5t-21.5 157q0 93 23 159.5t60.5 108.5t85 61.5t96.5 19.5q76 0 135 -37t88 -100l-65 -39q-9 18 -23.5 36.5t-34 33t-43 24t-50.5 9.5q-88 0 -137.5 -72t-49.5 -205q0 -65 15 -115.5
t41 -85t61.5 -52t76.5 -17.5q29 0 51.5 8t41 21.5t33 32t26.5 38.5z" />
    <glyph glyph-name="D" unicode="D" horiz-adv-x="620" 
d="M81 0v667h172q39 0 81 -6.5t78 -23.5t66 -43.5t51.5 -63.5t34 -83.5t12.5 -103.5q0 -70 -16 -125.5t-44.5 -96.5t-67.5 -68t-84 -40q-23 -7 -54.5 -10t-56.5 -3h-172zM161 69h82q22 0 50 2.5t51 11.5q30 13 56.5 34t47 51.5t32 72.5t11.5 98q0 87 -26.5 140t-72.5 83
q-29 19 -68.5 27.5t-76.5 8.5h-86v-529z" />
    <glyph glyph-name="E" unicode="E" horiz-adv-x="514" 
d="M81 0v667h389v-69h-309v-214h221v-69h-222v-246h334v-69h-413z" />
    <glyph glyph-name="F" unicode="F" horiz-adv-x="461" 
d="M81 0v667h378v-69h-298v-225h220v-69h-221v-304h-79z" />
    <glyph glyph-name="G" unicode="G" horiz-adv-x="597" 
d="M547 25q-15 -6 -37 -13t-50 -12.5t-60 -9t-66 -3.5q-59 0 -110.5 19.5t-90.5 61t-61.5 106.5t-22.5 157q0 94 22.5 160t60 108t86 61.5t100.5 19.5q45 0 79 -9t60 -26t45 -41t34 -54l-64 -39q-23 45 -58.5 71.5t-95.5 26.5q-35 0 -68.5 -16t-59 -50t-41 -87t-15.5 -126
q0 -65 16 -116t43.5 -86t64 -53t77.5 -18q45 0 78 5.5t54 12.5v174h-110v70h190v-294z" />
    <glyph glyph-name="H" unicode="H" horiz-adv-x="655" 
d="M81 0v667h80v-289h334v289h79v-667h-79v307h-334v-307h-80z" />
    <glyph glyph-name="I" unicode="I" horiz-adv-x="242" 
d="M81 0v667h80v-667h-80z" />
    <glyph glyph-name="J" unicode="J" horiz-adv-x="239" 
d="M-39 -67q60 10 91.5 35t31.5 73v626h80v-624q0 -82 -51 -124.5t-138 -52.5z" />
    <glyph glyph-name="K" unicode="K" horiz-adv-x="562" 
d="M81 0v667h80v-293l287 293h95l-257 -262l271 -405h-96l-231 347l-69 -71v-276h-80z" />
    <glyph glyph-name="L" unicode="L" horiz-adv-x="490" 
d="M81 0v667h80v-598h309v-69h-389z" />
    <glyph glyph-name="M" unicode="M" horiz-adv-x="743" 
d="M81 0v667h94l194 -515l200 515h93v-667h-77v509l-207 -520h-16l-203 519v-508h-78z" />
    <glyph glyph-name="N" unicode="N" horiz-adv-x="658" 
d="M81 0v667h81l336 -497v497h79v-667h-59l-358 529v-529h-79z" />
    <glyph glyph-name="O" unicode="O" horiz-adv-x="661" 
d="M204 17q-53 30 -87.5 78.5t-51 111t-16.5 127.5t16.5 127t51 111t87.5 78.5t127 29.5q73 0 126 -29.5t87.5 -78.5t51 -111t16.5 -127t-16.5 -127.5t-51 -111t-87.5 -78.5t-126 -30q-74 0 -127 30zM181 144q25 -39 62 -62.5t88 -23.5t88 23.5t61 62.5t36 88.5t12 101.5
q0 51 -11.5 100.5t-35.5 88.5t-61.5 62.5t-88.5 23.5t-88.5 -23.5t-62 -62.5t-36 -88.5t-11.5 -100.5q0 -52 12 -101.5t36 -88.5z" />
    <glyph glyph-name="P" unicode="P" horiz-adv-x="544" 
d="M81 0v667h208q115 0 170.5 -51t55.5 -151q0 -97 -58.5 -147t-170.5 -50h-125v-268h-80zM161 338h131q61 0 99 30t38 99t-36 100t-102 31h-130v-260z" />
    <glyph glyph-name="Q" unicode="Q" horiz-adv-x="661" 
d="M509 -138q-46 3 -81 10.5t-61.5 22t-46 37.5t-34.5 58q-62 9 -106.5 41.5t-73.5 80t-43 105t-14 117.5q0 65 16.5 127t51 111t87.5 78.5t127 29.5q73 0 126 -29.5t87.5 -78.5t51 -111t16.5 -127q0 -60 -14 -117.5t-42.5 -104.5t-73.5 -79.5t-106 -42.5q11 -29 44.5 -43.5
t97.5 -18.5zM181 144q25 -39 62 -62.5t88 -23.5t88 23.5t61 62.5t36 88.5t12 101.5q0 51 -11.5 100.5t-35.5 88.5t-61.5 62.5t-88.5 23.5t-88.5 -23.5t-62 -62.5t-36 -88.5t-11.5 -100.5q0 -52 12 -101.5t36 -88.5z" />
    <glyph glyph-name="R" unicode="R" horiz-adv-x="551" 
d="M81 0v667h214q112 0 165 -50t53 -132q0 -44 -12.5 -76.5t-35 -55t-53 -36.5t-65.5 -20l182 -297h-91l-180 292h-97v-292h-80zM161 361h129q139 0 139 124q0 57 -34 85t-98 28h-136v-237z" />
    <glyph glyph-name="S" unicode="S" horiz-adv-x="516" 
d="M93 143q29 -42 76 -63t96 -21q26 0 49.5 6.5t41 20t28 35.5t10.5 52q0 28 -13 49.5t-35 38.5t-50 30.5t-58 26.5q-34 15 -67 30.5t-59.5 37.5t-43 51t-16.5 71q0 43 17.5 75.5t47 54t67 32t78.5 10.5q63 0 121 -25t94 -79l-61 -48q-26 36 -66.5 58.5t-88.5 22.5
q-59 0 -91.5 -26.5t-32.5 -70.5q0 -25 11.5 -42.5t32 -32t49.5 -27.5t65 -29q34 -15 67 -32t59 -40t42 -54t16 -74q0 -51 -17.5 -88t-47.5 -61t-69.5 -35t-84.5 -11q-34 0 -67.5 7.5t-64 21.5t-56 34.5t-42.5 46.5z" />
    <glyph glyph-name="T" unicode="T" horiz-adv-x="511" 
d="M216 0v598h-207v69h493v-69h-207v-598h-79z" />
    <glyph glyph-name="U" unicode="U" horiz-adv-x="647" 
d="M157 238q0 -85 44 -132.5t122 -47.5q79 0 123 46t44 134v429h80v-444q0 -59 -20.5 -103t-55 -73.5t-79.5 -44.5t-94 -15q-52 0 -96.5 15t-77.5 44.5t-51.5 73.5t-18.5 103v444h80v-429z" />
    <glyph glyph-name="V" unicode="V" horiz-adv-x="555" 
d="M255 0l-255 667h88l193 -508l189 508h85l-253 -667h-47z" />
    <glyph glyph-name="W" unicode="W" horiz-adv-x="751" 
d="M168 0l-168 667h81l123 -471l150 471h42l152 -471l121 471h82l-168 -667h-48l-160 497l-159 -497h-48z" />
    <glyph glyph-name="X" unicode="X" horiz-adv-x="516" 
d="M0 0l207 342l-189 325h97l143 -262l146 262h92l-190 -319l210 -348h-100l-160 286l-164 -286h-92z" />
    <glyph glyph-name="Y" unicode="Y" horiz-adv-x="543" 
d="M227 0v320l-227 347h91l178 -270l187 270h87l-236 -346v-321h-80z" />
    <glyph glyph-name="Z" unicode="Z" horiz-adv-x="535" 
d="M38 0v74l376 524h-359v69h432v-86l-366 -512h381v-69h-464z" />
    <glyph glyph-name="bracketleft" unicode="[" horiz-adv-x="222" 
d="M70 -143v879h148v-63h-76v-752h76v-64h-148z" />
    <glyph glyph-name="backslash" unicode="\" horiz-adv-x="473" 
d="M410 -11l-410 736l65 36l408 -731z" />
    <glyph glyph-name="bracketright" unicode="]" horiz-adv-x="222" 
d="M4 -143v64h76v752h-76v63h148v-879h-148z" />
    <glyph glyph-name="asciicircum" unicode="^" horiz-adv-x="502" 
d="M61 318l159 351h58l163 -337l-68 -29l-125 257l-116 -268z" />
    <glyph glyph-name="underscore" unicode="_" horiz-adv-x="507" 
d="M0 -220v60h507v-60h-507z" />
    <glyph glyph-name="grave" unicode="`" horiz-adv-x="442" 
d="M112 668l51 52l167 -139l-36 -37z" />
    <glyph glyph-name="a" unicode="a" horiz-adv-x="470" 
d="M334 0l-4 41q-25 -25 -57.5 -38.5t-71.5 -13.5q-31 0 -60.5 9.5t-52 28t-36.5 46.5t-14 65q0 51 27.5 84t69.5 52.5t93 27.5t99 8v6q0 60 -25.5 86t-73.5 26q-33 0 -60.5 -14.5t-46.5 -38.5l-54 38q29 39 68.5 57.5t99.5 18.5q80 0 124.5 -41t44.5 -137v-311h-70z
M327 249q-33 -1 -70 -5t-68.5 -15.5t-52 -33.5t-20.5 -58q0 -23 9 -39t22.5 -26.5t30 -15t32.5 -4.5q35 0 64.5 14.5t52.5 34.5v148z" />
    <glyph glyph-name="b" unicode="b" horiz-adv-x="524" 
d="M146 462q31 14 59.5 20t56.5 6q46 0 86 -16.5t68.5 -48t45 -78t16.5 -107.5q0 -57 -18 -103t-50 -78.5t-75.5 -50t-94.5 -17.5q-55 0 -98.5 11.5t-72.5 24.5v642h77v-205zM146 68q19 -8 41 -13t42 -5q40 0 72.5 13.5t55 38.5t34.5 60t12 78t-12 77.5t-33 58.5t-49 36.5
t-61 12.5q-24 0 -50 -6.5t-52 -23.5v-327z" />
    <glyph glyph-name="c" unicode="c" horiz-adv-x="474" 
d="M448 102q-28 -58 -76.5 -85.5t-102.5 -27.5q-42 0 -82.5 15t-71.5 46t-50 77.5t-19 109.5q0 67 19 115t50 78.5t70 44.5t78 14q40 0 70.5 -12t52 -30t35 -38t19.5 -36l-57 -36q-21 48 -53 69t-67 21q-27 0 -52 -12.5t-45 -36.5t-32 -59t-12 -80t12 -80t32.5 -59t48 -36.5
t58.5 -12.5q35 0 67.5 20t53.5 65z" />
    <glyph glyph-name="d" unicode="d" horiz-adv-x="524" 
d="M387 0l-6 39q-26 -27 -56.5 -38.5t-66.5 -11.5q-51 0 -90.5 19.5t-66.5 53.5t-41 80.5t-14 100.5q0 46 14.5 90.5t43 79t71.5 55.5t100 21q36 0 62 -5.5t44 -12.5v196h77v-667h-71zM381 404q-6 4 -16.5 8t-23.5 7.5t-27 5.5t-27 2q-42 0 -73 -16t-51.5 -42.5t-30.5 -60.5
t-10 -69q0 -40 9 -74.5t27.5 -59.5t46 -39.5t65.5 -14.5q30 0 59 12.5t52 41.5v299z" />
    <glyph glyph-name="e" unicode="e" horiz-adv-x="508" 
d="M122 243q0 -90 41 -141t119 -51q45 0 76 22t50 54l51 -34q-26 -45 -67.5 -74.5t-111.5 -29.5q-54 0 -97 16.5t-73.5 48t-47 78.5t-16.5 109q0 57 15.5 102.5t43 78t67 50t87.5 17.5q53 0 92.5 -18t65.5 -50.5t39 -78t13 -99.5h-347zM382 304q-1 31 -12 54.5t-28 39
t-39 23t-44 7.5q-48 0 -82.5 -28.5t-47.5 -95.5h253z" />
    <glyph glyph-name="f" unicode="f" horiz-adv-x="293" 
d="M90 0v414h-70v63h71v35q0 46 10.5 78t29.5 52t45 29t58 9q38 0 64.5 -7.5t46.5 -18.5l-23 -59q-17 8 -37.5 14.5t-46.5 6.5q-17 0 -30 -4t-22 -15.5t-14 -32t-5 -53.5v-34h114v-63h-113v-414h-78z" />
    <glyph glyph-name="g" unicode="g" horiz-adv-x="520" 
d="M427 427q18 -20 29 -45.5t11 -57.5q0 -42 -17.5 -73.5t-46.5 -52.5t-67 -31t-78 -10q-13 0 -32.5 2t-30.5 4q-16 -2 -30 -10.5t-14 -22.5q0 -16 23.5 -23.5t85.5 -8.5q60 -1 106 -8t78 -23t48.5 -43.5t16.5 -69.5q0 -39 -18 -68t-49 -48.5t-72.5 -29.5t-87.5 -10
q-115 0 -178.5 35t-63.5 110q0 77 70 114q-18 8 -30 22t-12 36q0 28 21.5 46t53.5 26q-12 6 -27.5 17t-29 28t-22.5 39.5t-9 52.5q0 42 17.5 73t46.5 51.5t65.5 30.5t74.5 10q30 0 58.5 -5.5t54.5 -17.5l71 71l49 -45zM139 284q9 -19 25.5 -34t39.5 -24t52 -9q24 0 47.5 5.5
t43 18t31.5 33.5t12 51q0 25 -11 44.5t-29 32t-41.5 19t-48.5 6.5q-24 0 -47.5 -6.5t-41.5 -19t-29 -32t-11 -45.5q0 -21 8 -40zM259 32q-67 2 -92 6q-26 -13 -42 -34t-16 -54q0 -23 13 -40t36 -28.5t54.5 -17.5t69.5 -6q69 0 112.5 25t43.5 67q0 21 -8 36t-28.5 25t-55 15
t-87.5 6z" />
    <glyph glyph-name="h" unicode="h" horiz-adv-x="539" 
d="M69 0v667h77v-228q29 21 66 35.5t83 14.5q97 0 137.5 -49t40.5 -143v-297h-78v298q0 66 -27 97.5t-87 31.5q-38 0 -73.5 -17.5t-61.5 -36.5v-373h-77z" />
    <glyph glyph-name="i" unicode="i" horiz-adv-x="216" 
d="M108 553q-21 0 -36 16.5t-15 40.5q0 23 15 40t36 17t36 -17t15 -40q0 -24 -15 -40.5t-36 -16.5zM69 0v477h78v-477h-78z" />
    <glyph glyph-name="j" unicode="j" horiz-adv-x="214" 
d="M104 553q-21 0 -36 16.5t-15 40.5q0 23 15 40t36 17t36 -17t15 -40q0 -24 -15 -40.5t-36 -16.5zM-4 -142q18 13 31.5 26.5t21.5 29.5t12 36.5t4 47.5v479h78v-479q0 -77 -29 -121.5t-80 -73.5z" />
    <glyph glyph-name="k" unicode="k" horiz-adv-x="477" 
d="M69 0v667h77v-371l193 181h98l-163 -154l205 -323h-89l-173 270l-71 -65v-205h-77z" />
    <glyph glyph-name="l" unicode="l" horiz-adv-x="215" 
d="M69 0v667h77v-667h-77z" />
    <glyph glyph-name="m" unicode="m" horiz-adv-x="828" 
d="M69 0v477h71l5 -38q24 17 62 33.5t83 16.5q38 0 73.5 -13t59.5 -48q30 25 73 43t94 18q50 0 83.5 -13.5t53 -39t27.5 -63t8 -85.5v-288h-78v298q0 60 -23 93.5t-84 33.5q-20 0 -40 -5.5t-37.5 -13.5t-32 -17t-24.5 -17q5 -17 7.5 -35.5t2.5 -48.5v-288h-77v298
q0 26 -4.5 49t-16 40.5t-30.5 27.5t-49 10q-35 0 -69.5 -17.5t-60.5 -35.5v-372h-77z" />
    <glyph glyph-name="n" unicode="n" horiz-adv-x="541" 
d="M69 0v477h71l5 -38q29 22 68.5 36t82.5 14q98 0 138.5 -48.5t40.5 -143.5v-297h-77v299q0 60 -27 94t-88 34q-38 0 -74.5 -16.5t-62.5 -36.5v-374h-77z" />
    <glyph glyph-name="o" unicode="o" horiz-adv-x="536" 
d="M171 10q-41 22 -69 57.5t-42 81t-14 92.5t13.5 91.5t41.5 79.5t69.5 56t97.5 21q55 0 97 -21.5t69.5 -56.5t41.5 -80t14 -92t-14 -92t-41.5 -80t-69.5 -56.5t-97 -21.5t-97 21zM158 110q19 -26 46.5 -42.5t63.5 -16.5q37 0 64.5 16.5t46 43t27.5 60.5t9 69t-9 69
t-27.5 60.5t-46 42.5t-64.5 16t-64.5 -16t-45.5 -42.5t-27 -60t-9 -68.5q0 -36 9 -70t27 -61z" />
    <glyph glyph-name="p" unicode="p" horiz-adv-x="524" 
d="M69 -189v666h70l6 -35q31 25 65.5 36t72.5 11q53 0 90 -20t60.5 -54t34 -78.5t10.5 -92.5q0 -58 -18 -105t-49.5 -80.5t-75.5 -51.5t-95 -18q-56 0 -94 16v-194h-77zM146 72q11 -8 32 -14.5t47 -6.5q38 0 70.5 13t56 37t36.5 59.5t13 80.5q0 33 -7 66.5t-23 60t-42.5 43
t-65.5 16.5q-32 0 -62 -14t-55 -37v-304z" />
    <glyph glyph-name="q" unicode="q" horiz-adv-x="527" 
d="M381 -189v204q-23 -12 -52.5 -19.5t-62.5 -7.5q-46 0 -86 17.5t-70 50t-47 79t-17 104.5q0 56 18.5 102t51.5 79t79 51t102 18q38 0 83 -4t78 -9v-665h-77zM381 420q-14 3 -36 5t-47 2q-32 0 -63.5 -12t-56 -36t-40 -59.5t-15.5 -82.5q0 -41 13 -75t34.5 -58.5t50.5 -38
t62 -13.5q28 0 54 9t44 20v339z" />
    <glyph glyph-name="r" unicode="r" horiz-adv-x="322" 
d="M69 0v477h70l6 -42q19 20 49 37t61 17q22 0 40.5 -3t28.5 -6l-14 -71q-25 11 -63 11q-29 0 -55.5 -16t-45.5 -33v-371h-77z" />
    <glyph glyph-name="s" unicode="s" horiz-adv-x="412" 
d="M95 118q17 -32 43.5 -49.5t71.5 -17.5q98 0 98 70q0 21 -6.5 35.5t-21 26t-37.5 22t-56 22.5q-36 12 -61 25.5t-41 29.5t-23.5 36t-7.5 47q0 58 42.5 91t112.5 33q58 0 97 -19.5t66 -55.5l-54 -43q-20 24 -47 40t-61 16q-42 0 -62.5 -16.5t-20.5 -40.5q0 -15 5.5 -26.5
t19.5 -21t36.5 -19t57.5 -21.5q66 -23 100 -58t34 -93q0 -34 -13 -60.5t-35.5 -44.5t-53.5 -27.5t-68 -9.5q-71 0 -111 26t-64 66z" />
    <glyph glyph-name="t" unicode="t" horiz-adv-x="328" 
d="M177 109q0 -35 13.5 -46.5t34.5 -11.5q19 0 36 8t31 19l30 -52q-23 -17 -45.5 -27t-63.5 -10q-54 0 -83 27.5t-29 84.5v313h-82v63h82v130h77v-130h125v-63h-126v-305z" />
    <glyph glyph-name="u" unicode="u" horiz-adv-x="538" 
d="M143 171q0 -63 29 -91.5t86 -28.5q37 0 73.5 15.5t59.5 37.5v373h78v-477h-71l-5 37q-29 -22 -63 -35t-85 -13q-94 0 -136.5 46t-42.5 140v302h77v-306z" />
    <glyph glyph-name="v" unicode="v" horiz-adv-x="446" 
d="M179 0l-179 477h83l142 -389l143 389h78l-179 -477h-88z" />
    <glyph glyph-name="w" unicode="w" horiz-adv-x="661" 
d="M158 0l-158 477h83l108 -359l117 359h44l118 -359l108 359h83l-158 -477h-60l-113 344l-112 -344h-60z" />
    <glyph glyph-name="x" unicode="x" horiz-adv-x="403" 
d="M0 0l160 243l-153 234h87l108 -171l109 171h82l-152 -232l158 -245h-83l-117 178l-116 -178h-83z" />
    <glyph glyph-name="y" unicode="y" horiz-adv-x="453" 
d="M25 -126q11 -4 27.5 -7.5t33.5 -3.5q23 0 36 11t27 43l39 95l-188 465h88l141 -367l141 367h83l-244 -603q-18 -44 -50.5 -60t-67.5 -16q-23 0 -48.5 6.5t-39.5 12.5z" />
    <glyph glyph-name="z" unicode="z" horiz-adv-x="452" 
d="M40 0v75l284 339h-273v63h352v-79l-285 -335h292v-63h-370z" />
    <glyph glyph-name="braceleft" unicode="{" horiz-adv-x="238" 
d="M234 -62q-66 1 -98.5 27.5t-32.5 94.5v149q0 49 -23.5 71.5t-60.5 27.5v53q37 5 60.5 27.5t23.5 71.5v149q0 68 32.5 94t98.5 28l6 -54q-24 -1 -37.5 -6.5t-20.5 -15.5t-8.5 -25t-1.5 -36v-134q0 -54 -17 -82.5t-62 -43.5q45 -14 62 -42.5t17 -82.5v-135q0 -20 1.5 -34.5
t8.5 -24t20.5 -14.5t37.5 -6z" />
    <glyph glyph-name="bar" unicode="|" horiz-adv-x="212" 
d="M70 -74v812h72v-812h-72z" />
    <glyph glyph-name="braceright" unicode="}" horiz-adv-x="239" 
d="M-1 -5q24 1 37.5 6t20.5 14.5t8.5 24t1.5 34.5v135q0 54 17 82.5t62 42.5q-45 15 -62 43.5t-17 82.5v134q0 21 -1.5 36t-8.5 25t-20.5 15.5t-37.5 6.5l6 54q66 -2 98.5 -28t32.5 -94v-149q0 -49 23.5 -71.5t60.5 -27.5v-53q-37 -5 -60.5 -27.5t-23.5 -71.5v-149
q0 -68 -32.5 -94.5t-98.5 -27.5z" />
    <glyph glyph-name="asciitilde" unicode="~" horiz-adv-x="445" 
d="M-2 507q8 67 43 105t98 38q33 0 54 -9t41 -23q11 -7 20.5 -14.5t18.5 -14.5t18 -12t17 -5q41 0 55.5 23t18.5 57h65q-2 -39 -15 -67t-32 -46.5t-42 -27.5t-45 -9q-30 0 -50.5 9t-37.5 22q-13 10 -23.5 18.5t-19.5 14.5q-9 7 -19.5 11.5t-21.5 4.5q-42 0 -58.5 -21.5
t-20.5 -53.5h-64z" />
    <glyph glyph-name="uni00A0" unicode="&#xa0;" horiz-adv-x="200" 
 />
    <glyph glyph-name="exclamdown" unicode="&#xa1;" horiz-adv-x="198" 
d="M99 369q-23 0 -38.5 17t-15.5 43q0 25 15.5 42.5t38.5 17.5t38.5 -17.5t15.5 -42.5q0 -26 -15.5 -43t-38.5 -17zM59 -190v444h77v-444h-77z" />
    <glyph glyph-name="cent" unicode="&#xa2;" horiz-adv-x="540" 
d="M257 -4v145q-79 11 -123 64t-44 132q0 42 13 75.5t35.5 57.5t53 38.5t65.5 19.5v139h55v-139q39 -1 69 -15.5t48 -29.5l-31 -53q-20 17 -41 26t-45 9v-260q21 1 41.5 7.5t36.5 15.5l25 -58q-19 -12 -47.5 -21t-55.5 -10v-143h-55zM257 464q-40 -5 -65 -37.5t-25 -89.5
q0 -54 23.5 -84.5t66.5 -44.5v256z" />
    <glyph glyph-name="sterling" unicode="&#xa3;" horiz-adv-x="540" 
d="M115 0v251h-69v68h69v150q0 100 48.5 152t139.5 52q74 0 117 -33t66 -83l-76 -37q-13 31 -37.5 55.5t-70.5 24.5q-55 0 -83 -31.5t-28 -103.5v-146h221v-68h-221v-183h295v-68h-371z" />
    <glyph glyph-name="currency" unicode="&#xa4;" horiz-adv-x="668" 
d="M0 77l157 160q-21 29 -32.5 62.5t-11.5 70.5q0 35 10.5 67.5t29.5 60.5l-153 154l57 50l147 -151q29 21 63 33t72 12q73 0 129 -41l143 147l57 -50l-147 -148q21 -29 32.5 -62.5t11.5 -71.5q0 -79 -48 -139l151 -154l-51 -48l-152 153q-28 -18 -59.5 -28t-66.5 -10
q-37 0 -70 11t-61 31l-156 -157zM197 309q12 -28 33 -49t49 -33t60 -12t60 12t49 33t33 49t12 60t-12 60.5t-33 49.5t-49 33t-60 12t-60 -12t-49 -33t-33 -49.5t-12 -60.5t12 -60z" />
    <glyph glyph-name="yen" unicode="&#xa5;" horiz-adv-x="540" 
d="M226 0v217h-143v68h143v27l-32 53h-111v68h70l-137 226h91l162 -270l170 270h87l-144 -226h67v-68h-110l-33 -52v-28h139v-68h-139v-217h-80z" />
    <glyph glyph-name="brokenbar" unicode="&#xa6;" horiz-adv-x="192" 
d="M60 462v276h72v-276h-72zM60 -74v275h72v-275h-72z" />
    <glyph glyph-name="section" unicode="&#xa7;" horiz-adv-x="421" 
d="M90 -33q20 -23 47 -37.5t59 -14.5q42 0 66 19t24 52q0 17 -6 32t-20 30.5t-37.5 33.5t-58.5 41q-52 34 -82 71t-30 91t36 85t89 43q-19 16 -35.5 31t-29 32t-19.5 37.5t-7 47.5q0 55 40.5 87t104.5 32q51 0 83 -17t52 -40l-42 -45q-17 20 -42 32t-53 12q-75 0 -75 -61
q0 -30 27.5 -59t78.5 -73q34 -29 56.5 -51t35.5 -42t18.5 -40t5.5 -45q0 -24 -9.5 -44.5t-24.5 -36t-34.5 -27t-39.5 -17.5q20 -15 36.5 -29t28.5 -29t18.5 -33t6.5 -41q0 -33 -13.5 -58.5t-36 -43t-51 -27t-57.5 -9.5q-51 0 -86.5 15.5t-61.5 42.5zM150 220q27 -27 75 -62
q38 11 60 34.5t22 55.5q0 17 -4.5 31.5t-15 29.5t-28 31.5t-42.5 37.5q-42 -7 -68 -28.5t-26 -63.5q0 -38 27 -66z" />
    <glyph glyph-name="dieresis" unicode="&#xa8;" horiz-adv-x="442" 
d="M307 590q-20 0 -34.5 16.5t-14.5 39.5t14.5 39t34.5 16q21 0 35.5 -16t14.5 -39t-14.5 -39.5t-35.5 -16.5zM135 590q-21 0 -35.5 16.5t-14.5 39.5t14.5 39t35.5 16q20 0 34.5 -16t14.5 -39t-14.5 -39.5t-34.5 -16.5z" />
    <glyph glyph-name="copyright" unicode="&#xa9;" horiz-adv-x="776" 
d="M238 -45q-64 32 -107 84.5t-64.5 119.5t-21.5 138q0 70 21.5 136.5t65 119t107.5 84.5t150 32q85 0 149 -32t107 -84.5t64.5 -119t21.5 -136.5q0 -71 -21.5 -138t-64.5 -119.5t-107.5 -84.5t-149.5 -32q-86 0 -150 32zM178 79q36 -44 88.5 -71t122.5 -27q69 0 121.5 27
t88 71.5t53 101.5t17.5 116t-17.5 115.5t-53 101t-88 71.5t-121.5 27q-70 0 -123 -27t-88 -71.5t-53 -101t-18 -115.5t18 -116t53 -102zM537 153q-23 -38 -60.5 -61t-85.5 -23q-39 0 -73 13t-58.5 40.5t-39 70t-14.5 102.5t14.5 103.5t39.5 72t59 42t73 13.5q56 0 90 -25.5
t53 -59.5l-47 -30q-15 28 -37.5 44.5t-60.5 16.5q-54 0 -87.5 -44.5t-33.5 -132.5q0 -85 35.5 -128.5t87.5 -43.5q33 0 56.5 17t42.5 45z" />
    <glyph glyph-name="ordfeminine" unicode="&#xaa;" horiz-adv-x="342" 
d="M248 373l-2 24q-14 -11 -38 -22t-51 -11q-23 0 -45 7t-39 21.5t-27.5 35.5t-10.5 49q0 38 19 63t49 39.5t67 20.5t73 6q0 42 -17.5 59.5t-49.5 17.5q-48 0 -76 -39l-47 29q20 30 51.5 46.5t76.5 16.5q60 0 93 -30.5t33 -102.5v-230h-59zM243 553q-27 0 -52.5 -4t-46 -13
t-33 -23.5t-12.5 -36.5q0 -30 21 -43.5t43 -13.5q24 0 45 9.5t35 21.5v103z" />
    <glyph glyph-name="guillemotleft" unicode="&#xab;" horiz-adv-x="481" 
d="M193 250l200 204l50 -37l-144 -162l158 -158l-47 -43zM15 250l194 204l52 -39l-145 -160l159 -157l-48 -44z" />
    <glyph glyph-name="logicalnot" unicode="&#xac;" horiz-adv-x="540" 
d="M28 443v70h472v-367h-72v297h-400z" />
    <glyph glyph-name="uni00AD" unicode="&#xad;" horiz-adv-x="307" 
d="M45 225v71h217v-71h-217z" />
    <glyph glyph-name="registered" unicode="&#xae;" horiz-adv-x="776" 
d="M238 -45q-64 32 -107 84.5t-64.5 119.5t-21.5 138q0 70 21.5 136.5t65 119t107.5 84.5t150 32q85 0 149 -32t107 -84.5t64.5 -119t21.5 -136.5q0 -71 -21.5 -138t-64.5 -119.5t-107.5 -84.5t-149.5 -32q-86 0 -150 32zM178 79q36 -44 88.5 -71t122.5 -27q69 0 121.5 27
t88 71.5t53 101.5t17.5 116t-17.5 115.5t-53 101t-88 71.5t-121.5 27q-70 0 -123 -27t-88 -71.5t-53 -101t-18 -115.5t18 -116t53 -102zM249 80v441h143q75 0 110.5 -33.5t35.5 -88.5q0 -57 -30 -86.5t-75 -38.5l119 -194h-69l-117 189h-57v-189h-60zM309 323h80q86 0 86 76
q0 69 -82 69h-84v-145z" />
    <glyph glyph-name="macron" unicode="&#xaf;" horiz-adv-x="442" 
d="M74 590v62h294v-62h-294z" />
    <glyph glyph-name="degree" unicode="&#xb0;" horiz-adv-x="363" 
d="M127 390q-26 12 -45.5 31.5t-30.5 45.5t-11 56q0 28 11 54.5t30.5 46t45.5 31.5t55 12t55 -11.5t45 -31t30 -46t11 -55.5q0 -30 -11 -56t-30 -45.5t-45 -31t-55 -11.5t-55 11zM106 490q7 -15 18.5 -26.5t26 -18t31.5 -6.5q36 0 59 25.5t23 58.5t-23 58.5t-59 25.5
q-35 0 -58.5 -24.5t-23.5 -59.5q0 -18 6 -33z" />
    <glyph glyph-name="plusminus" unicode="&#xb1;" horiz-adv-x="540" 
d="M237 155v220h-201v70h201v219h70v-219h201v-70h-201v-220h-70zM31 0v67h478v-67h-478z" />
    <glyph glyph-name="twosuperior" unicode="&#xb2;" 
d="M41 336v36q30 32 56 59.5t47 52.5q25 30 37 49.5t12 41.5t-12.5 33t-31.5 11q-20 0 -37 -10.5t-35 -39.5l-50 27q23 38 51 57.5t73 19.5q48 0 77 -25.5t29 -67.5q0 -34 -17.5 -63t-39.5 -55q-17 -19 -34 -37t-34 -37h133v-52h-224z" />
    <glyph glyph-name="threesuperior" unicode="&#xb3;" 
d="M74 428q16 -26 34.5 -35.5t36.5 -9.5q26 0 44.5 14t18.5 37q0 24 -20 37t-55 15v45q32 2 50.5 14.5t18.5 32.5q0 19 -15.5 31t-37.5 12q-42 0 -64 -43l-49 28q20 35 51.5 51t65.5 16q21 0 41 -6t35.5 -18t25.5 -29t10 -39q0 -23 -10.5 -41t-28.5 -30q20 -11 32 -28.5
t12 -46.5q0 -26 -11 -45t-28.5 -32t-40 -19.5t-44.5 -6.5q-34 0 -66 15.5t-55 52.5z" />
    <glyph glyph-name="acute" unicode="&#xb4;" horiz-adv-x="442" 
d="M149 544l-37 37l167 139l51 -52z" />
    <glyph glyph-name="mu" unicode="&#xb5;" horiz-adv-x="574" 
d="M80 -189v666h78v-304q0 -66 30 -94t87 -28q46 0 77 18.5t44 44.5q7 14 8 33t1 36v294h78v-359q0 -34 6.5 -50t30.5 -16q15 0 27 4l12 -56q-11 -5 -26.5 -8t-25.5 -3q-34 0 -56.5 12.5t-34.5 46.5q-30 -31 -63 -45t-84 -14q-37 0 -66.5 11.5t-48.5 34.5v-224h-74z" />
    <glyph glyph-name="paragraph" unicode="&#xb6;" horiz-adv-x="506" 
d="M368 -145v812h72v-812h-72zM230 -145v421q-41 0 -76.5 15.5t-61.5 41.5t-41.5 61.5t-15.5 76.5q0 40 15.5 76t41.5 62.5t61.5 42t76.5 15.5h71v-812h-71z" />
    <glyph glyph-name="periodcentered" unicode="&#xb7;" horiz-adv-x="288" 
d="M144 309q-23 0 -38.5 17.5t-15.5 42.5t15.5 42.5t38.5 17.5t38.5 -17.5t15.5 -42.5t-15.5 -42.5t-38.5 -17.5z" />
    <glyph glyph-name="cedilla" unicode="&#xb8;" horiz-adv-x="442" 
d="M0 -174l51 130h82l-72 -130h-61z" />
    <glyph glyph-name="onesuperior" unicode="&#xb9;" 
d="M137 337v262l-68 -39l-27 48l106 61h50v-332h-61z" />
    <glyph glyph-name="ordmasculine" unicode="&#xba;" horiz-adv-x="401" 
d="M128 384q-31 17 -51.5 43.5t-31 60t-10.5 68.5q0 34 10 67.5t30.5 59.5t51.5 42t73 16t73 -16t51.5 -42.5t31 -60t10.5 -68.5t-10.5 -68t-31 -59.5t-51.5 -42.5t-73 -16q-41 0 -72 16zM124 463q13 -19 32 -30t44 -11t44 11t32 30t19.5 42.5t6.5 49.5q0 25 -6.5 49
t-19.5 42.5t-32 29.5t-44 11t-44 -11t-31.5 -29.5t-19 -42t-6.5 -48.5q0 -26 6.5 -50t18.5 -43z" />
    <glyph glyph-name="guillemotright" unicode="&#xbb;" horiz-adv-x="481" 
d="M206 98l159 157l-145 160l52 39l194 -204l-212 -196zM24 97l158 158l-144 162l50 37l200 -204l-218 -196z" />
    <glyph glyph-name="onequarter" unicode="&#xbc;" horiz-adv-x="740" 
d="M64 -16l-38 44l638 642l44 -46zM137 337v262l-68 -39l-27 48l106 61h50v-332h-61zM437 90v47l161 194h48v-197h41v-44h-41v-87h-61v87h-148zM496 134h89v111z" />
    <glyph glyph-name="onehalf" unicode="&#xbd;" horiz-adv-x="740" 
d="M50 -16l-38 44l638 642l44 -46zM129 337v262l-68 -39l-27 48l106 61h50v-332h-61zM449 2v36q30 32 56 59.5t47 52.5q25 30 37 49.5t12 41.5t-12.5 33t-31.5 11q-20 0 -37 -10.5t-35 -39.5l-50 27q23 38 51 57.5t73 19.5q48 0 77 -25.5t29 -67.5q0 -34 -17.5 -63
t-39.5 -55q-17 -19 -34 -37t-34 -37h133v-52h-224z" />
    <glyph glyph-name="threequarters" unicode="&#xbe;" horiz-adv-x="740" 
d="M75 -16l-38 44l638 642l44 -46zM74 428q16 -26 34.5 -35.5t36.5 -9.5q26 0 44.5 14t18.5 37q0 24 -20 37t-55 15v45q32 2 50.5 14.5t18.5 32.5q0 19 -15.5 31t-37.5 12q-42 0 -64 -43l-49 28q20 35 51.5 51t65.5 16q21 0 41 -6t35.5 -18t25.5 -29t10 -39q0 -23 -10.5 -41
t-28.5 -30q20 -11 32 -28.5t12 -46.5q0 -26 -11 -45t-28.5 -32t-40 -19.5t-44.5 -6.5q-34 0 -66 15.5t-55 52.5zM443 90v47l161 194h48v-197h41v-44h-41v-87h-61v87h-148zM502 134h89v111z" />
    <glyph glyph-name="questiondown" unicode="&#xbf;" horiz-adv-x="370" 
d="M195 369q-23 0 -38.5 17t-15.5 43q0 25 15.5 42.5t38.5 17.5t38.5 -17.5t15.5 -42.5q0 -26 -15.5 -43t-38.5 -17zM382 -79q-13 -21 -30.5 -41.5t-41.5 -37t-54.5 -27t-69.5 -10.5q-88 0 -134 46.5t-46 127.5q0 45 21.5 81.5t50.5 68.5q22 25 37.5 42.5t25 32t13.5 27
t4 27.5v36h73v-43q0 -46 -23 -80t-50 -63q-34 -36 -53.5 -64.5t-19.5 -70.5q0 -49 27 -76.5t78 -27.5q45 0 79 26.5t59 64.5z" />
    <glyph glyph-name="Agrave" unicode="&#xc0;" horiz-adv-x="568" 
d="M0 0l257 667h49l262 -667h-87l-79 206h-242l-76 -206h-84zM186 277h190l-97 255zM144 834l51 52l167 -139l-36 -37z" />
    <glyph glyph-name="Aacute" unicode="&#xc1;" horiz-adv-x="568" 
d="M0 0l257 667h49l262 -667h-87l-79 206h-242l-76 -206h-84zM186 277h190l-97 255zM221 710l-37 37l167 139l51 -52z" />
    <glyph glyph-name="Acircumflex" unicode="&#xc2;" horiz-adv-x="568" 
d="M0 0l257 667h49l262 -667h-87l-79 206h-242l-76 -206h-84zM186 277h190l-97 255zM132 740l126 144h48l126 -144l-44 -30l-106 112l-105 -112z" />
    <glyph glyph-name="Atilde" unicode="&#xc3;" horiz-adv-x="568" 
d="M0 0l257 667h49l262 -667h-87l-79 206h-242l-76 -206h-84zM186 277h190l-97 255zM105 758q14 45 41.5 72t62.5 27q22 0 43 -11.5t41 -23.5q9 -6 23 -14t28 -8q15 0 30 13t29 46l49 -24q-16 -46 -43 -72t-62 -26q-19 0 -37 8.5t-35 19.5q-11 6 -29 17.5t-34 11.5
q-17 0 -30.5 -13.5t-27.5 -45.5z" />
    <glyph glyph-name="Adieresis" unicode="&#xc4;" horiz-adv-x="568" 
d="M0 0l257 667h49l262 -667h-87l-79 206h-242l-76 -206h-84zM186 277h190l-97 255zM368 755q-20 0 -34.5 16.5t-14.5 39.5t14.5 39t34.5 16q21 0 35.5 -16t14.5 -39t-14.5 -39.5t-35.5 -16.5zM196 755q-21 0 -35.5 16.5t-14.5 39.5t14.5 39t35.5 16q20 0 34.5 -16t14.5 -39
t-14.5 -39.5t-34.5 -16.5z" />
    <glyph glyph-name="Aring" unicode="&#xc5;" horiz-adv-x="568" 
d="M0 0l256 665q-8 2 -14 5q-17 9 -28.5 23t-17.5 31.5t-6 36.5t6 37t17.5 32t29 22.5t40.5 8.5t40.5 -8.5t29.5 -22.5t18 -32t6 -37q0 -18 -6 -36t-18 -32t-30 -23q-7 -3 -16 -6l261 -664h-87l-79 206h-242l-76 -206h-84zM186 277h190l-97 255zM245 720q13 -18 38 -18
t38 18.5t13 40.5q0 23 -13 41.5t-38 18.5t-38 -18.5t-13 -41.5q0 -22 13 -41z" />
    <glyph glyph-name="AE" unicode="&#xc6;" horiz-adv-x="845" 
d="M0 0l376 667h421v-69h-290v-214h201v-69h-201v-246h313v-69h-393v206h-222l-116 -206h-89zM245 277h182v323z" />
    <glyph glyph-name="Ccedilla" unicode="&#xc7;" horiz-adv-x="569" 
d="M541 121q-13 -24 -32 -48t-45 -43t-60 -31t-77 -12q-59 0 -109.5 19.5t-88 61t-59 106.5t-21.5 157q0 93 23 159.5t60.5 108.5t85 61.5t96.5 19.5q76 0 135 -37t88 -100l-65 -39q-9 18 -23.5 36.5t-34 33t-43 24t-50.5 9.5q-88 0 -137.5 -72t-49.5 -205q0 -65 15 -115.5
t41 -85t61.5 -52t76.5 -17.5q29 0 51.5 8t41 21.5t33 32t26.5 38.5zM232 -174l51 130h82l-72 -130h-61z" />
    <glyph glyph-name="Egrave" unicode="&#xc8;" horiz-adv-x="514" 
d="M81 0v667h389v-69h-309v-214h221v-69h-222v-246h334v-69h-413zM159 834l51 52l167 -139l-36 -37z" />
    <glyph glyph-name="Eacute" unicode="&#xc9;" horiz-adv-x="514" 
d="M81 0v667h389v-69h-309v-214h221v-69h-222v-246h334v-69h-413zM224 710l-37 37l167 139l51 -52z" />
    <glyph glyph-name="Ecircumflex" unicode="&#xca;" horiz-adv-x="514" 
d="M81 0v667h389v-69h-309v-214h221v-69h-222v-246h334v-69h-413zM134 740l126 144h48l126 -144l-44 -30l-106 112l-105 -112z" />
    <glyph glyph-name="Edieresis" unicode="&#xcb;" horiz-adv-x="514" 
d="M81 0v667h389v-69h-309v-214h221v-69h-222v-246h334v-69h-413zM365 756q-20 0 -34.5 16.5t-14.5 39.5t14.5 39t34.5 16q21 0 35.5 -16t14.5 -39t-14.5 -39.5t-35.5 -16.5zM193 756q-21 0 -35.5 16.5t-14.5 39.5t14.5 39t35.5 16q20 0 34.5 -16t14.5 -39t-14.5 -39.5
t-34.5 -16.5z" />
    <glyph glyph-name="Igrave" unicode="&#xcc;" horiz-adv-x="242" 
d="M81 0v667h80v-667h-80zM-10 834l51 52l167 -139l-36 -37z" />
    <glyph glyph-name="Iacute" unicode="&#xcd;" horiz-adv-x="242" 
d="M81 0v667h80v-667h-80zM76 710l-37 37l167 139l51 -52z" />
    <glyph glyph-name="Icircumflex" unicode="&#xce;" horiz-adv-x="242" 
d="M81 0v667h80v-667h-80zM-21 740l126 144h48l126 -144l-44 -30l-106 112l-105 -112z" />
    <glyph glyph-name="Idieresis" unicode="&#xcf;" horiz-adv-x="242" 
d="M81 0v667h80v-667h-80zM212 756q-20 0 -34.5 16.5t-14.5 39.5t14.5 39t34.5 16q21 0 35.5 -16t14.5 -39t-14.5 -39.5t-35.5 -16.5zM40 756q-21 0 -35.5 16.5t-14.5 39.5t14.5 39t35.5 16q20 0 34.5 -16t14.5 -39t-14.5 -39.5t-34.5 -16.5z" />
    <glyph glyph-name="Eth" unicode="&#xd0;" horiz-adv-x="623" 
d="M81 0v316h-82v62h82v289h173q38 0 80.5 -6.5t77.5 -23.5q72 -34 118 -107t46 -187q0 -70 -16 -125.5t-44 -96.5t-67 -68t-84 -40q-23 -7 -54.5 -10t-56.5 -3h-173zM161 69h82q23 0 50.5 2.5t50.5 11.5q30 13 57 33.5t47 51.5t32 73t12 98q0 87 -27 140t-73 83
q-29 19 -68 27.5t-76 8.5h-87v-220h160v-62h-160v-247z" />
    <glyph glyph-name="Ntilde" unicode="&#xd1;" horiz-adv-x="658" 
d="M81 0v667h81l336 -497v497h79v-667h-59l-358 529v-529h-79zM168 758q14 45 41.5 72t62.5 27q22 0 43 -11.5t41 -23.5q9 -6 23 -14t28 -8q15 0 30 13t29 46l49 -24q-16 -46 -43 -72t-62 -26q-19 0 -37 8.5t-35 19.5q-11 6 -29 17.5t-34 11.5q-17 0 -30.5 -13.5
t-27.5 -45.5z" />
    <glyph glyph-name="Ograve" unicode="&#xd2;" horiz-adv-x="661" 
d="M204 17q-53 30 -87.5 78.5t-51 111t-16.5 127.5t16.5 127t51 111t87.5 78.5t127 29.5q73 0 126 -29.5t87.5 -78.5t51 -111t16.5 -127t-16.5 -127.5t-51 -111t-87.5 -78.5t-126 -30q-74 0 -127 30zM181 144q25 -39 62 -62.5t88 -23.5t88 23.5t61 62.5t36 88.5t12 101.5
q0 51 -11.5 100.5t-35.5 88.5t-61.5 62.5t-88.5 23.5t-88.5 -23.5t-62 -62.5t-36 -88.5t-11.5 -100.5q0 -52 12 -101.5t36 -88.5zM221 834l51 52l167 -139l-36 -37z" />
    <glyph glyph-name="Oacute" unicode="&#xd3;" horiz-adv-x="661" 
d="M204 17q-53 30 -87.5 78.5t-51 111t-16.5 127.5t16.5 127t51 111t87.5 78.5t127 29.5q73 0 126 -29.5t87.5 -78.5t51 -111t16.5 -127t-16.5 -127.5t-51 -111t-87.5 -78.5t-126 -30q-74 0 -127 30zM181 144q25 -39 62 -62.5t88 -23.5t88 23.5t61 62.5t36 88.5t12 101.5
q0 51 -11.5 100.5t-35.5 88.5t-61.5 62.5t-88.5 23.5t-88.5 -23.5t-62 -62.5t-36 -88.5t-11.5 -100.5q0 -52 12 -101.5t36 -88.5zM267 710l-37 37l167 139l51 -52z" />
    <glyph glyph-name="Ocircumflex" unicode="&#xd4;" horiz-adv-x="661" 
d="M204 17q-53 30 -87.5 78.5t-51 111t-16.5 127.5t16.5 127t51 111t87.5 78.5t127 29.5q73 0 126 -29.5t87.5 -78.5t51 -111t16.5 -127t-16.5 -127.5t-51 -111t-87.5 -78.5t-126 -30q-74 0 -127 30zM181 144q25 -39 62 -62.5t88 -23.5t88 23.5t61 62.5t36 88.5t12 101.5
q0 51 -11.5 100.5t-35.5 88.5t-61.5 62.5t-88.5 23.5t-88.5 -23.5t-62 -62.5t-36 -88.5t-11.5 -100.5q0 -52 12 -101.5t36 -88.5zM181 740l126 144h48l126 -144l-44 -30l-106 112l-105 -112z" />
    <glyph glyph-name="Otilde" unicode="&#xd5;" horiz-adv-x="661" 
d="M204 17q-53 30 -87.5 78.5t-51 111t-16.5 127.5t16.5 127t51 111t87.5 78.5t127 29.5q73 0 126 -29.5t87.5 -78.5t51 -111t16.5 -127t-16.5 -127.5t-51 -111t-87.5 -78.5t-126 -30q-74 0 -127 30zM181 144q25 -39 62 -62.5t88 -23.5t88 23.5t61 62.5t36 88.5t12 101.5
q0 51 -11.5 100.5t-35.5 88.5t-61.5 62.5t-88.5 23.5t-88.5 -23.5t-62 -62.5t-36 -88.5t-11.5 -100.5q0 -52 12 -101.5t36 -88.5zM153 758q14 45 41.5 72t62.5 27q22 0 43 -11.5t41 -23.5q9 -6 23 -14t28 -8q15 0 30 13t29 46l49 -24q-16 -46 -43 -72t-62 -26q-19 0 -37 8.5
t-35 19.5q-11 6 -29 17.5t-34 11.5q-17 0 -30.5 -13.5t-27.5 -45.5z" />
    <glyph glyph-name="Odieresis" unicode="&#xd6;" horiz-adv-x="661" 
d="M204 17q-53 30 -87.5 78.5t-51 111t-16.5 127.5t16.5 127t51 111t87.5 78.5t127 29.5q73 0 126 -29.5t87.5 -78.5t51 -111t16.5 -127t-16.5 -127.5t-51 -111t-87.5 -78.5t-126 -30q-74 0 -127 30zM181 144q25 -39 62 -62.5t88 -23.5t88 23.5t61 62.5t36 88.5t12 101.5
q0 51 -11.5 100.5t-35.5 88.5t-61.5 62.5t-88.5 23.5t-88.5 -23.5t-62 -62.5t-36 -88.5t-11.5 -100.5q0 -52 12 -101.5t36 -88.5zM418 756q-20 0 -34.5 16.5t-14.5 39.5t14.5 39t34.5 16q21 0 35.5 -16t14.5 -39t-14.5 -39.5t-35.5 -16.5zM246 756q-21 0 -35.5 16.5
t-14.5 39.5t14.5 39t35.5 16q20 0 34.5 -16t14.5 -39t-14.5 -39.5t-34.5 -16.5z" />
    <glyph glyph-name="multiply" unicode="&#xd7;" horiz-adv-x="540" 
d="M133 144l-50 55l135 135l-135 134l51 54l136 -136l137 136l50 -54l-135 -134l135 -135l-49 -55l-138 138z" />
    <glyph glyph-name="Oslash" unicode="&#xd8;" horiz-adv-x="661" 
d="M57 22l60 75q-33 49 -50.5 111t-17.5 126q0 65 16.5 127t51 111t87.5 78.5t127 29.5q60 0 107 -21t82 -56l62 78l49 -42l-73 -91q26 -48 40 -102.5t14 -111.5q0 -65 -16.5 -127.5t-51 -111t-87.5 -78.5t-126 -30q-52 0 -95 16t-76 43l-54 -68zM470 541q-24 31 -59 49.5
t-80 18.5q-51 0 -88.5 -23.5t-62 -62.5t-36 -88.5t-11.5 -100.5q0 -45 10 -88t28 -81zM209 108q23 -23 54 -36.5t68 -13.5q51 0 88 23.5t61 62.5t36 88.5t12 101.5q0 36 -7 72.5t-19 69.5z" />
    <glyph glyph-name="Ugrave" unicode="&#xd9;" horiz-adv-x="647" 
d="M157 238q0 -85 44 -132.5t122 -47.5q79 0 123 46t44 134v429h80v-444q0 -59 -20.5 -103t-55 -73.5t-79.5 -44.5t-94 -15q-52 0 -96.5 15t-77.5 44.5t-51.5 73.5t-18.5 103v444h80v-429zM192 834l51 52l167 -139l-36 -37z" />
    <glyph glyph-name="Uacute" unicode="&#xda;" horiz-adv-x="647" 
d="M157 238q0 -85 44 -132.5t122 -47.5q79 0 123 46t44 134v429h80v-444q0 -59 -20.5 -103t-55 -73.5t-79.5 -44.5t-94 -15q-52 0 -96.5 15t-77.5 44.5t-51.5 73.5t-18.5 103v444h80v-429zM269 710l-37 37l167 139l51 -52z" />
    <glyph glyph-name="Ucircumflex" unicode="&#xdb;" horiz-adv-x="647" 
d="M157 238q0 -85 44 -132.5t122 -47.5q79 0 123 46t44 134v429h80v-444q0 -59 -20.5 -103t-55 -73.5t-79.5 -44.5t-94 -15q-52 0 -96.5 15t-77.5 44.5t-51.5 73.5t-18.5 103v444h80v-429zM181 740l126 144h48l126 -144l-44 -30l-106 112l-105 -112z" />
    <glyph glyph-name="Udieresis" unicode="&#xdc;" horiz-adv-x="647" 
d="M157 238q0 -85 44 -132.5t122 -47.5q79 0 123 46t44 134v429h80v-444q0 -59 -20.5 -103t-55 -73.5t-79.5 -44.5t-94 -15q-52 0 -96.5 15t-77.5 44.5t-51.5 73.5t-18.5 103v444h80v-429zM415 756q-20 0 -34.5 16.5t-14.5 39.5t14.5 39t34.5 16q21 0 35.5 -16t14.5 -39
t-14.5 -39.5t-35.5 -16.5zM243 756q-21 0 -35.5 16.5t-14.5 39.5t14.5 39t35.5 16q20 0 34.5 -16t14.5 -39t-14.5 -39.5t-34.5 -16.5z" />
    <glyph glyph-name="Yacute" unicode="&#xdd;" horiz-adv-x="543" 
d="M227 0v320l-227 347h91l178 -270l187 270h87l-236 -346v-321h-80zM219 710l-37 37l167 139l51 -52z" />
    <glyph glyph-name="Thorn" unicode="&#xde;" horiz-adv-x="534" 
d="M81 0v667h80v-118h120q227 0 227 -201q0 -97 -59 -147.5t-170 -50.5h-118v-150h-80zM161 220h123q61 0 99 30.5t38 98.5q0 69 -36 100.5t-102 31.5h-122v-261z" />
    <glyph glyph-name="germandbls" unicode="&#xdf;" horiz-adv-x="528" 
d="M89 0v414h-69v63h69q2 100 49.5 151.5t134.5 51.5q81 0 128.5 -49t47.5 -134v-73h-77q-42 0 -62 -15.5t-20 -40.5q0 -14 4.5 -25t15.5 -21t29.5 -19.5t46.5 -21.5q64 -27 94 -62.5t30 -87.5q0 -33 -12 -59.5t-33 -45t-49 -28t-61 -9.5t-57 6t-42 18t-32 29t-27 39l63 33
q16 -32 38 -47.5t57 -15.5q38 0 60 18t22 52q0 17 -5 31.5t-17 27.5t-33 25.5t-52 25.5q-51 21 -82 52t-31 85q0 60 42.5 88.5t117.5 30.5q0 67 -29.5 99.5t-75.5 32.5t-75.5 -32.5t-29.5 -109.5v-477h-78z" />
    <glyph glyph-name="agrave" unicode="&#xe0;" horiz-adv-x="470" 
d="M334 0l-4 41q-25 -25 -57.5 -38.5t-71.5 -13.5q-31 0 -60.5 9.5t-52 28t-36.5 46.5t-14 65q0 51 27.5 84t69.5 52.5t93 27.5t99 8v6q0 60 -25.5 86t-73.5 26q-33 0 -60.5 -14.5t-46.5 -38.5l-54 38q29 39 68.5 57.5t99.5 18.5q80 0 124.5 -41t44.5 -137v-311h-70z
M327 249q-33 -1 -70 -5t-68.5 -15.5t-52 -33.5t-20.5 -58q0 -23 9 -39t22.5 -26.5t30 -15t32.5 -4.5q35 0 64.5 14.5t52.5 34.5v148zM102 668l51 52l167 -139l-36 -37z" />
    <glyph glyph-name="aacute" unicode="&#xe1;" horiz-adv-x="470" 
d="M334 0l-4 41q-25 -25 -57.5 -38.5t-71.5 -13.5q-31 0 -60.5 9.5t-52 28t-36.5 46.5t-14 65q0 51 27.5 84t69.5 52.5t93 27.5t99 8v6q0 60 -25.5 86t-73.5 26q-33 0 -60.5 -14.5t-46.5 -38.5l-54 38q29 39 68.5 57.5t99.5 18.5q80 0 124.5 -41t44.5 -137v-311h-70z
M327 249q-33 -1 -70 -5t-68.5 -15.5t-52 -33.5t-20.5 -58q0 -23 9 -39t22.5 -26.5t30 -15t32.5 -4.5q35 0 64.5 14.5t52.5 34.5v148zM185 544l-37 37l167 139l51 -52z" />
    <glyph glyph-name="acircumflex" unicode="&#xe2;" horiz-adv-x="470" 
d="M334 0l-4 41q-25 -25 -57.5 -38.5t-71.5 -13.5q-31 0 -60.5 9.5t-52 28t-36.5 46.5t-14 65q0 51 27.5 84t69.5 52.5t93 27.5t99 8v6q0 60 -25.5 86t-73.5 26q-33 0 -60.5 -14.5t-46.5 -38.5l-54 38q29 39 68.5 57.5t99.5 18.5q80 0 124.5 -41t44.5 -137v-311h-70z
M327 249q-33 -1 -70 -5t-68.5 -15.5t-52 -33.5t-20.5 -58q0 -23 9 -39t22.5 -26.5t30 -15t32.5 -4.5q35 0 64.5 14.5t52.5 34.5v148zM84 574l126 144h48l126 -144l-44 -30l-106 112l-105 -112z" />
    <glyph glyph-name="atilde" unicode="&#xe3;" horiz-adv-x="470" 
d="M334 0l-4 41q-25 -25 -57.5 -38.5t-71.5 -13.5q-31 0 -60.5 9.5t-52 28t-36.5 46.5t-14 65q0 51 27.5 84t69.5 52.5t93 27.5t99 8v6q0 60 -25.5 86t-73.5 26q-33 0 -60.5 -14.5t-46.5 -38.5l-54 38q29 39 68.5 57.5t99.5 18.5q80 0 124.5 -41t44.5 -137v-311h-70z
M327 249q-33 -1 -70 -5t-68.5 -15.5t-52 -33.5t-20.5 -58q0 -23 9 -39t22.5 -26.5t30 -15t32.5 -4.5q35 0 64.5 14.5t52.5 34.5v148zM64 592q14 45 41.5 72t62.5 27q22 0 43 -11.5t41 -23.5q9 -6 23 -14t28 -8q15 0 30 13t29 46l49 -24q-16 -46 -43 -72t-62 -26
q-19 0 -37 8.5t-35 19.5q-11 6 -29 17.5t-34 11.5q-17 0 -30.5 -13.5t-27.5 -45.5z" />
    <glyph glyph-name="adieresis" unicode="&#xe4;" horiz-adv-x="470" 
d="M334 0l-4 41q-25 -25 -57.5 -38.5t-71.5 -13.5q-31 0 -60.5 9.5t-52 28t-36.5 46.5t-14 65q0 51 27.5 84t69.5 52.5t93 27.5t99 8v6q0 60 -25.5 86t-73.5 26q-33 0 -60.5 -14.5t-46.5 -38.5l-54 38q29 39 68.5 57.5t99.5 18.5q80 0 124.5 -41t44.5 -137v-311h-70z
M327 249q-33 -1 -70 -5t-68.5 -15.5t-52 -33.5t-20.5 -58q0 -23 9 -39t22.5 -26.5t30 -15t32.5 -4.5q35 0 64.5 14.5t52.5 34.5v148zM322 590q-20 0 -34.5 16.5t-14.5 39.5t14.5 39t34.5 16q21 0 35.5 -16t14.5 -39t-14.5 -39.5t-35.5 -16.5zM150 590q-21 0 -35.5 16.5
t-14.5 39.5t14.5 39t35.5 16q20 0 34.5 -16t14.5 -39t-14.5 -39.5t-34.5 -16.5z" />
    <glyph glyph-name="aring" unicode="&#xe5;" horiz-adv-x="470" 
d="M334 0l-4 41q-25 -25 -57.5 -38.5t-71.5 -13.5q-31 0 -60.5 9.5t-52 28t-36.5 46.5t-14 65q0 51 27.5 84t69.5 52.5t93 27.5t99 8v6q0 60 -25.5 86t-73.5 26q-33 0 -60.5 -14.5t-46.5 -38.5l-54 38q29 39 68.5 57.5t99.5 18.5q80 0 124.5 -41t44.5 -137v-311h-70z
M327 249q-33 -1 -70 -5t-68.5 -15.5t-52 -33.5t-20.5 -58q0 -23 9 -39t22.5 -26.5t30 -15t32.5 -4.5q35 0 64.5 14.5t52.5 34.5v148zM195 542q-17 9 -28.5 23t-17.5 31.5t-6 36.5t6 37t17.5 32t29 22.5t40.5 8.5t40.5 -8.5t29.5 -22.5t18 -32t6 -37q0 -18 -6 -36t-18 -32
t-29.5 -22.5t-40.5 -8.5t-41 8zM198 592q13 -18 38 -18t38 18.5t13 40.5q0 23 -13 41.5t-38 18.5t-38 -18.5t-13 -41.5q0 -22 13 -41z" />
    <glyph glyph-name="ae" unicode="&#xe6;" horiz-adv-x="765" 
d="M66 412q29 38 69 57.5t100 19.5q54 0 87 -18t54 -54q24 34 60 53t91 19q52 0 90 -18t62 -50.5t35.5 -78t11.5 -99.5h-324q0 -94 34 -143t103 -49q45 0 74 18.5t52 56.5l50 -32q-26 -48 -70.5 -76.5t-107.5 -28.5q-36 0 -63.5 8t-47.5 20.5t-33.5 27.5t-21.5 29
q-9 -15 -23 -30t-34 -27.5t-46 -20t-59 -7.5q-35 0 -66 10t-54.5 29t-37 46.5t-13.5 63.5q0 51 27.5 84t69.5 52.5t93 27.5t99 8v6q0 60 -25.5 86t-73.5 26q-33 0 -60.5 -14.5t-46.5 -38.5zM639 304q-3 63 -34.5 93.5t-77.5 30.5q-49 0 -82.5 -28.5t-41.5 -95.5h236z
M327 249q-33 -1 -70 -5t-68.5 -15.5t-52 -33.5t-20.5 -58q0 -42 24.5 -63.5t69.5 -21.5q57 0 87 25t30 67v105z" />
    <glyph glyph-name="ccedilla" unicode="&#xe7;" horiz-adv-x="474" 
d="M448 102q-28 -58 -76.5 -85.5t-102.5 -27.5q-42 0 -82.5 15t-71.5 46t-50 77.5t-19 109.5q0 67 19 115t50 78.5t70 44.5t78 14q40 0 70.5 -12t52 -30t35 -38t19.5 -36l-57 -36q-21 48 -53 69t-67 21q-27 0 -52 -12.5t-45 -36.5t-32 -59t-12 -80t12 -80t32.5 -59t48 -36.5
t58.5 -12.5q35 0 67.5 20t53.5 65zM173 -174l51 130h82l-72 -130h-61z" />
    <glyph glyph-name="egrave" unicode="&#xe8;" horiz-adv-x="508" 
d="M122 243q0 -90 41 -141t119 -51q45 0 76 22t50 54l51 -34q-26 -45 -67.5 -74.5t-111.5 -29.5q-54 0 -97 16.5t-73.5 48t-47 78.5t-16.5 109q0 57 15.5 102.5t43 78t67 50t87.5 17.5q53 0 92.5 -18t65.5 -50.5t39 -78t13 -99.5h-347zM382 304q-1 31 -12 54.5t-28 39
t-39 23t-44 7.5q-48 0 -82.5 -28.5t-47.5 -95.5h253zM139 668l51 52l167 -139l-36 -37z" />
    <glyph glyph-name="eacute" unicode="&#xe9;" horiz-adv-x="508" 
d="M122 243q0 -90 41 -141t119 -51q45 0 76 22t50 54l51 -34q-26 -45 -67.5 -74.5t-111.5 -29.5q-54 0 -97 16.5t-73.5 48t-47 78.5t-16.5 109q0 57 15.5 102.5t43 78t67 50t87.5 17.5q53 0 92.5 -18t65.5 -50.5t39 -78t13 -99.5h-347zM382 304q-1 31 -12 54.5t-28 39
t-39 23t-44 7.5q-48 0 -82.5 -28.5t-47.5 -95.5h253zM197 544l-37 37l167 139l51 -52z" />
    <glyph glyph-name="ecircumflex" unicode="&#xea;" horiz-adv-x="508" 
d="M122 243q0 -90 41 -141t119 -51q45 0 76 22t50 54l51 -34q-26 -45 -67.5 -74.5t-111.5 -29.5q-54 0 -97 16.5t-73.5 48t-47 78.5t-16.5 109q0 57 15.5 102.5t43 78t67 50t87.5 17.5q53 0 92.5 -18t65.5 -50.5t39 -78t13 -99.5h-347zM382 304q-1 31 -12 54.5t-28 39
t-39 23t-44 7.5q-48 0 -82.5 -28.5t-47.5 -95.5h253zM114 574l126 144h48l126 -144l-44 -30l-106 112l-105 -112z" />
    <glyph glyph-name="edieresis" unicode="&#xeb;" horiz-adv-x="508" 
d="M122 243q0 -90 41 -141t119 -51q45 0 76 22t50 54l51 -34q-26 -45 -67.5 -74.5t-111.5 -29.5q-54 0 -97 16.5t-73.5 48t-47 78.5t-16.5 109q0 57 15.5 102.5t43 78t67 50t87.5 17.5q53 0 92.5 -18t65.5 -50.5t39 -78t13 -99.5h-347zM382 304q-1 31 -12 54.5t-28 39
t-39 23t-44 7.5q-48 0 -82.5 -28.5t-47.5 -95.5h253zM349 590q-20 0 -34.5 16.5t-14.5 39.5t14.5 39t34.5 16q21 0 35.5 -16t14.5 -39t-14.5 -39.5t-35.5 -16.5zM177 590q-21 0 -35.5 16.5t-14.5 39.5t14.5 39t35.5 16q20 0 34.5 -16t14.5 -39t-14.5 -39.5t-34.5 -16.5z" />
    <glyph glyph-name="igrave" unicode="&#xec;" horiz-adv-x="215" 
d="M69 0v477h77v-477h-77zM-48 668l51 52l167 -139l-36 -37z" />
    <glyph glyph-name="iacute" unicode="&#xed;" horiz-adv-x="215" 
d="M69 0v477h77v-477h-77zM89 544l-37 37l167 139l51 -52z" />
    <glyph glyph-name="icircumflex" unicode="&#xee;" horiz-adv-x="215" 
d="M69 0v477h77v-477h-77zM-40 574l126 144h48l126 -144l-44 -30l-106 112l-105 -112z" />
    <glyph glyph-name="idieresis" unicode="&#xef;" horiz-adv-x="215" 
d="M69 0v477h77v-477h-77zM196 590q-20 0 -34.5 16.5t-14.5 39.5t14.5 39t34.5 16q21 0 35.5 -16t14.5 -39t-14.5 -39.5t-35.5 -16.5zM24 590q-21 0 -35.5 16.5t-14.5 39.5t14.5 39t35.5 16q20 0 34.5 -16t14.5 -39t-14.5 -39.5t-34.5 -16.5z" />
    <glyph glyph-name="eth" unicode="&#xf0;" horiz-adv-x="537" 
d="M231 548l30 41q-18 10 -45 19.5t-52 14.5l15 57q34 -4 66.5 -15t52.5 -24l31 43l45 -30l-32 -43q30 -24 57.5 -56t47.5 -74t32 -95t12 -119q0 -73 -18 -125.5t-48 -86.5t-70 -50t-85 -16q-47 0 -88 17t-71 49t-47.5 79t-17.5 107q0 58 16.5 104t45.5 78t70 49t91 17
q39 0 64.5 -8.5t42.5 -16.5q-12 28 -29.5 53.5t-40.5 42.5l-31 -41zM408 338q-6 35 -13 55q-24 13 -55 24t-69 11q-66 0 -107 -48.5t-41 -138.5q0 -45 11 -80.5t31 -60t46.5 -37t58.5 -12.5q30 0 56.5 12t46 38t31 66.5t11.5 98.5q0 38 -7 72z" />
    <glyph glyph-name="ntilde" unicode="&#xf1;" horiz-adv-x="541" 
d="M69 0v477h71l5 -38q29 22 68.5 36t82.5 14q98 0 138.5 -48.5t40.5 -143.5v-297h-77v299q0 60 -27 94t-88 34q-38 0 -74.5 -16.5t-62.5 -36.5v-374h-77zM105 592q14 45 41.5 72t62.5 27q22 0 43 -11.5t41 -23.5q9 -6 23 -14t28 -8q15 0 30 13t29 46l49 -24
q-16 -46 -43 -72t-62 -26q-19 0 -37 8.5t-35 19.5q-11 6 -29 17.5t-34 11.5q-17 0 -30.5 -13.5t-27.5 -45.5z" />
    <glyph glyph-name="ograve" unicode="&#xf2;" horiz-adv-x="536" 
d="M171 10q-41 22 -69 57.5t-42 81t-14 92.5t13.5 91.5t41.5 79.5t69.5 56t97.5 21q55 0 97 -21.5t69.5 -56.5t41.5 -80t14 -92t-14 -92t-41.5 -80t-69.5 -56.5t-97 -21.5t-97 21zM158 110q19 -26 46.5 -42.5t63.5 -16.5q37 0 64.5 16.5t46 43t27.5 60.5t9 69t-9 69
t-27.5 60.5t-46 42.5t-64.5 16t-64.5 -16t-45.5 -42.5t-27 -60t-9 -68.5q0 -36 9 -70t27 -61zM137 668l51 52l167 -139l-36 -37z" />
    <glyph glyph-name="oacute" unicode="&#xf3;" horiz-adv-x="536" 
d="M171 10q-41 22 -69 57.5t-42 81t-14 92.5t13.5 91.5t41.5 79.5t69.5 56t97.5 21q55 0 97 -21.5t69.5 -56.5t41.5 -80t14 -92t-14 -92t-41.5 -80t-69.5 -56.5t-97 -21.5t-97 21zM158 110q19 -26 46.5 -42.5t63.5 -16.5q37 0 64.5 16.5t46 43t27.5 60.5t9 69t-9 69
t-27.5 60.5t-46 42.5t-64.5 16t-64.5 -16t-45.5 -42.5t-27 -60t-9 -68.5q0 -36 9 -70t27 -61zM203 544l-37 37l167 139l51 -52z" />
    <glyph glyph-name="ocircumflex" unicode="&#xf4;" horiz-adv-x="536" 
d="M171 10q-41 22 -69 57.5t-42 81t-14 92.5t13.5 91.5t41.5 79.5t69.5 56t97.5 21q55 0 97 -21.5t69.5 -56.5t41.5 -80t14 -92t-14 -92t-41.5 -80t-69.5 -56.5t-97 -21.5t-97 21zM158 110q19 -26 46.5 -42.5t63.5 -16.5q37 0 64.5 16.5t46 43t27.5 60.5t9 69t-9 69
t-27.5 60.5t-46 42.5t-64.5 16t-64.5 -16t-45.5 -42.5t-27 -60t-9 -68.5q0 -36 9 -70t27 -61zM115 574l126 144h48l126 -144l-44 -30l-106 112l-105 -112z" />
    <glyph glyph-name="otilde" unicode="&#xf5;" horiz-adv-x="536" 
d="M171 10q-41 22 -69 57.5t-42 81t-14 92.5t13.5 91.5t41.5 79.5t69.5 56t97.5 21q55 0 97 -21.5t69.5 -56.5t41.5 -80t14 -92t-14 -92t-41.5 -80t-69.5 -56.5t-97 -21.5t-97 21zM158 110q19 -26 46.5 -42.5t63.5 -16.5q37 0 64.5 16.5t46 43t27.5 60.5t9 69t-9 69
t-27.5 60.5t-46 42.5t-64.5 16t-64.5 -16t-45.5 -42.5t-27 -60t-9 -68.5q0 -36 9 -70t27 -61zM91 592q14 45 41.5 72t62.5 27q22 0 43 -11.5t41 -23.5q9 -6 23 -14t28 -8q15 0 30 13t29 46l49 -24q-16 -46 -43 -72t-62 -26q-19 0 -37 8.5t-35 19.5q-11 6 -29 17.5t-34 11.5
q-17 0 -30.5 -13.5t-27.5 -45.5z" />
    <glyph glyph-name="odieresis" unicode="&#xf6;" horiz-adv-x="536" 
d="M171 10q-41 22 -69 57.5t-42 81t-14 92.5t13.5 91.5t41.5 79.5t69.5 56t97.5 21q55 0 97 -21.5t69.5 -56.5t41.5 -80t14 -92t-14 -92t-41.5 -80t-69.5 -56.5t-97 -21.5t-97 21zM158 110q19 -26 46.5 -42.5t63.5 -16.5q37 0 64.5 16.5t46 43t27.5 60.5t9 69t-9 69
t-27.5 60.5t-46 42.5t-64.5 16t-64.5 -16t-45.5 -42.5t-27 -60t-9 -68.5q0 -36 9 -70t27 -61zM358 590q-20 0 -34.5 16.5t-14.5 39.5t14.5 39t34.5 16q21 0 35.5 -16t14.5 -39t-14.5 -39.5t-35.5 -16.5zM186 590q-21 0 -35.5 16.5t-14.5 39.5t14.5 39t35.5 16q20 0 34.5 -16
t14.5 -39t-14.5 -39.5t-34.5 -16.5z" />
    <glyph glyph-name="divide" unicode="&#xf7;" horiz-adv-x="540" 
d="M269 458q-23 0 -38.5 17.5t-15.5 42.5q0 26 15.5 43.5t38.5 17.5t38.5 -17.5t15.5 -43.5q0 -25 -15.5 -42.5t-38.5 -17.5zM34 297v70h472v-70h-472zM269 94q-23 0 -38.5 17.5t-15.5 42.5q0 26 15.5 43.5t38.5 17.5t38.5 -17.5t15.5 -43.5q0 -25 -15.5 -42.5t-38.5 -17.5z
" />
    <glyph glyph-name="oslash" unicode="&#xf8;" horiz-adv-x="536" 
d="M69 -36l50 86q-35 36 -54 86.5t-19 104.5q0 47 13.5 91.5t41.5 79.5t69.5 56t97.5 21q25 0 49.5 -5.5t46.5 -15.5l47 80l49 -29l-49 -83q39 -36 59 -88t20 -109q0 -47 -14 -92t-41.5 -80t-69.5 -56.5t-97 -21.5q-29 0 -55 6.5t-47 17.5l-48 -81zM199 70q14 -8 31.5 -13.5
t37.5 -5.5q37 0 64.5 16.5t46 43t27.5 60.5t9 69q0 36 -10.5 71t-29.5 61zM331 412q-13 7 -29.5 11.5t-33.5 4.5q-37 0 -64.5 -16t-45.5 -42.5t-27 -60t-9 -68.5q0 -34 9.5 -67t25.5 -59z" />
    <glyph glyph-name="ugrave" unicode="&#xf9;" horiz-adv-x="538" 
d="M143 171q0 -63 29 -91.5t86 -28.5q37 0 73.5 15.5t59.5 37.5v373h78v-477h-71l-5 37q-29 -22 -63 -35t-85 -13q-94 0 -136.5 46t-42.5 140v302h77v-306zM136 668l51 52l167 -139l-36 -37z" />
    <glyph glyph-name="uacute" unicode="&#xfa;" horiz-adv-x="538" 
d="M143 171q0 -63 29 -91.5t86 -28.5q37 0 73.5 15.5t59.5 37.5v373h78v-477h-71l-5 37q-29 -22 -63 -35t-85 -13q-94 0 -136.5 46t-42.5 140v302h77v-306zM217 544l-37 37l167 139l51 -52z" />
    <glyph glyph-name="ucircumflex" unicode="&#xfb;" horiz-adv-x="538" 
d="M143 171q0 -63 29 -91.5t86 -28.5q37 0 73.5 15.5t59.5 37.5v373h78v-477h-71l-5 37q-29 -22 -63 -35t-85 -13q-94 0 -136.5 46t-42.5 140v302h77v-306zM123 574l126 144h48l126 -144l-44 -30l-106 112l-105 -112z" />
    <glyph glyph-name="udieresis" unicode="&#xfc;" horiz-adv-x="538" 
d="M143 171q0 -63 29 -91.5t86 -28.5q37 0 73.5 15.5t59.5 37.5v373h78v-477h-71l-5 37q-29 -22 -63 -35t-85 -13q-94 0 -136.5 46t-42.5 140v302h77v-306zM358 590q-20 0 -34.5 16.5t-14.5 39.5t14.5 39t34.5 16q21 0 35.5 -16t14.5 -39t-14.5 -39.5t-35.5 -16.5zM186 590
q-21 0 -35.5 16.5t-14.5 39.5t14.5 39t35.5 16q20 0 34.5 -16t14.5 -39t-14.5 -39.5t-34.5 -16.5z" />
    <glyph glyph-name="yacute" unicode="&#xfd;" horiz-adv-x="453" 
d="M25 -126q11 -4 27.5 -7.5t33.5 -3.5q23 0 36 11t27 43l39 95l-188 465h88l141 -367l141 367h83l-244 -603q-18 -44 -50.5 -60t-67.5 -16q-23 0 -48.5 6.5t-39.5 12.5zM176 544l-37 37l167 139l51 -52z" />
    <glyph glyph-name="thorn" unicode="&#xfe;" horiz-adv-x="525" 
d="M69 -189v856h76v-224q27 21 64 33.5t75 12.5q53 0 90 -20t60.5 -54t34 -78.5t10.5 -92.5q0 -58 -18 -105t-49.5 -80.5t-75.5 -51.5t-95 -18q-58 0 -94 16v-194h-78zM147 72q11 -8 32 -14.5t47 -6.5q38 0 70.5 13t56 37t36.5 59.5t13 80.5q0 33 -7 66.5t-23 60t-42.5 43
t-65.5 16.5q-32 0 -62.5 -14t-54.5 -37v-304z" />
    <glyph glyph-name="ydieresis" unicode="&#xff;" horiz-adv-x="453" 
d="M25 -126q11 -4 27.5 -7.5t33.5 -3.5q23 0 36 11t27 43l39 95l-188 465h88l141 -367l141 367h83l-244 -603q-18 -44 -50.5 -60t-67.5 -16q-23 0 -48.5 6.5t-39.5 12.5zM322 590q-20 0 -34.5 16.5t-14.5 39.5t14.5 39t34.5 16q21 0 35.5 -16t14.5 -39t-14.5 -39.5
t-35.5 -16.5zM150 590q-21 0 -35.5 16.5t-14.5 39.5t14.5 39t35.5 16q20 0 34.5 -16t14.5 -39t-14.5 -39.5t-34.5 -16.5z" />
    <glyph glyph-name="Amacron" unicode="&#x100;" horiz-adv-x="568" 
d="M137 773v62h294v-62h-294zM0 0l257 667h49l262 -667h-87l-79 206h-242l-76 -206h-84zM186 277h190l-97 255z" />
    <glyph glyph-name="amacron" unicode="&#x101;" horiz-adv-x="470" 
d="M334 0l-4 41q-25 -25 -57.5 -38.5t-71.5 -13.5q-31 0 -60.5 9.5t-52 28t-36.5 46.5t-14 65q0 51 27.5 84t69.5 52.5t93 27.5t99 8v6q0 60 -25.5 86t-73.5 26q-33 0 -60.5 -14.5t-46.5 -38.5l-54 38q29 39 68.5 57.5t99.5 18.5q80 0 124.5 -41t44.5 -137v-311h-70z
M327 249q-33 -1 -70 -5t-68.5 -15.5t-52 -33.5t-20.5 -58q0 -23 9 -39t22.5 -26.5t30 -15t32.5 -4.5q35 0 64.5 14.5t52.5 34.5v148zM83 590v62h294v-62h-294z" />
    <glyph glyph-name="Abreve" unicode="&#x102;" horiz-adv-x="568" 
d="M0 0l257 667h49l262 -667h-87l-79 206h-242l-76 -206h-84zM186 277h190l-97 255zM205 848q3 -22 11 -36t18.5 -22.5t23.5 -11.5t26 -3q26 0 49 14.5t31 58.5h60q-3 -36 -16.5 -60.5t-34 -39.5t-45 -21.5t-48.5 -6.5t-48 6.5t-43.5 21.5t-32.5 39.5t-14 60.5h63z" />
    <glyph glyph-name="abreve" unicode="&#x103;" horiz-adv-x="470" 
d="M334 0l-4 41q-25 -25 -57.5 -38.5t-71.5 -13.5q-31 0 -60.5 9.5t-52 28t-36.5 46.5t-14 65q0 51 27.5 84t69.5 52.5t93 27.5t99 8v6q0 60 -25.5 86t-73.5 26q-33 0 -60.5 -14.5t-46.5 -38.5l-54 38q29 39 68.5 57.5t99.5 18.5q80 0 124.5 -41t44.5 -137v-311h-70z
M327 249q-33 -1 -70 -5t-68.5 -15.5t-52 -33.5t-20.5 -58q0 -23 9 -39t22.5 -26.5t30 -15t32.5 -4.5q35 0 64.5 14.5t52.5 34.5v148zM160 682q3 -22 11 -36t18.5 -22.5t23.5 -11.5t26 -3q26 0 49 14.5t31 58.5h60q-3 -36 -16.5 -60.5t-34 -39.5t-45 -21.5t-48.5 -6.5
t-48 6.5t-43.5 21.5t-32.5 39.5t-14 60.5h63z" />
    <glyph glyph-name="Aogonek" unicode="&#x104;" horiz-adv-x="568" 
d="M578 -161q-12 -8 -29 -13t-38 -5q-38 0 -62 19.5t-24 58.5q0 22 7.5 40.5t19 34.5t25.5 28l2 2l-77 202h-242l-76 -206h-84l257 667h49l262 -667h-21q-19 -15 -36 -34q-22 -27 -22 -58q0 -14 7 -23.5t23 -9.5q14 0 23.5 4t17.5 9zM186 277h190l-97 255z" />
    <glyph glyph-name="aogonek" unicode="&#x105;" horiz-adv-x="470" 
d="M418 -161q-12 -8 -29 -13t-38 -5q-38 0 -62 19.5t-24 58.5q0 22 7.5 40.5t19 34.5t25.5 28q8 7 15 12l-2 27q-25 -25 -57.5 -38.5t-71.5 -13.5q-31 0 -60.5 9.5t-52 28t-36.5 46.5t-14 65q0 51 27.5 84t69.5 52.5t93 27.5t99 8v6q0 60 -25.5 86t-73.5 26
q-33 0 -60.5 -14.5t-46.5 -38.5l-54 38q29 39 68.5 57.5t99.5 18.5q80 0 124.5 -41t44.5 -137v-311h-17q-19 -15 -36 -34q-22 -27 -22 -58q0 -14 7 -23.5t23 -9.5q14 0 23.5 4t17.5 9zM327 249q-33 -1 -70 -5t-68.5 -15.5t-52 -33.5t-20.5 -58q0 -23 9 -39t22.5 -26.5
t30 -15t32.5 -4.5q35 0 64.5 14.5t52.5 34.5v148z" />
    <glyph glyph-name="Cacute" unicode="&#x106;" horiz-adv-x="569" 
d="M541 121q-13 -24 -32 -48t-45 -43t-60 -31t-77 -12q-59 0 -109.5 19.5t-88 61t-59 106.5t-21.5 157q0 93 23 159.5t60.5 108.5t85 61.5t96.5 19.5q76 0 135 -37t88 -100l-65 -39q-9 18 -23.5 36.5t-34 33t-43 24t-50.5 9.5q-88 0 -137.5 -72t-49.5 -205q0 -65 15 -115.5
t41 -85t61.5 -52t76.5 -17.5q29 0 51.5 8t41 21.5t33 32t26.5 38.5zM257 710l-37 37l167 139l51 -52z" />
    <glyph glyph-name="cacute" unicode="&#x107;" horiz-adv-x="474" 
d="M448 102q-28 -58 -76.5 -85.5t-102.5 -27.5q-42 0 -82.5 15t-71.5 46t-50 77.5t-19 109.5q0 67 19 115t50 78.5t70 44.5t78 14q40 0 70.5 -12t52 -30t35 -38t19.5 -36l-57 -36q-21 48 -53 69t-67 21q-27 0 -52 -12.5t-45 -36.5t-32 -59t-12 -80t12 -80t32.5 -59t48 -36.5
t58.5 -12.5q35 0 67.5 20t53.5 65zM190 544l-37 37l167 139l51 -52z" />
    <glyph glyph-name="Ccircumflex" unicode="&#x108;" horiz-adv-x="569" 
d="M541 121q-13 -24 -32 -48t-45 -43t-60 -31t-77 -12q-59 0 -109.5 19.5t-88 61t-59 106.5t-21.5 157q0 93 23 159.5t60.5 108.5t85 61.5t96.5 19.5q76 0 135 -37t88 -100l-65 -39q-9 18 -23.5 36.5t-34 33t-43 24t-50.5 9.5q-88 0 -137.5 -72t-49.5 -205q0 -65 15 -115.5
t41 -85t61.5 -52t76.5 -17.5q29 0 51.5 8t41 21.5t33 32t26.5 38.5zM161 740l126 144h48l126 -144l-44 -30l-106 112l-105 -112z" />
    <glyph glyph-name="ccircumflex" unicode="&#x109;" horiz-adv-x="474" 
d="M448 102q-28 -58 -76.5 -85.5t-102.5 -27.5q-42 0 -82.5 15t-71.5 46t-50 77.5t-19 109.5q0 67 19 115t50 78.5t70 44.5t78 14q40 0 70.5 -12t52 -30t35 -38t19.5 -36l-57 -36q-21 48 -53 69t-67 21q-27 0 -52 -12.5t-45 -36.5t-32 -59t-12 -80t12 -80t32.5 -59t48 -36.5
t58.5 -12.5q35 0 67.5 20t53.5 65zM109 574l126 144h48l126 -144l-44 -30l-106 112l-105 -112z" />
    <glyph glyph-name="Cdotaccent" unicode="&#x10a;" horiz-adv-x="569" 
d="M541 121q-13 -24 -32 -48t-45 -43t-60 -31t-77 -12q-59 0 -109.5 19.5t-88 61t-59 106.5t-21.5 157q0 93 23 159.5t60.5 108.5t85 61.5t96.5 19.5q76 0 135 -37t88 -100l-65 -39q-9 18 -23.5 36.5t-34 33t-43 24t-50.5 9.5q-88 0 -137.5 -72t-49.5 -205q0 -65 15 -115.5
t41 -85t61.5 -52t76.5 -17.5q29 0 51.5 8t41 21.5t33 32t26.5 38.5zM318 751q-23 0 -38.5 17.5t-15.5 43.5q0 25 15.5 42.5t38.5 17.5t38.5 -17.5t15.5 -42.5q0 -26 -15.5 -43.5t-38.5 -17.5z" />
    <glyph glyph-name="cdotaccent" unicode="&#x10b;" horiz-adv-x="474" 
d="M448 102q-28 -58 -76.5 -85.5t-102.5 -27.5q-42 0 -82.5 15t-71.5 46t-50 77.5t-19 109.5q0 67 19 115t50 78.5t70 44.5t78 14q40 0 70.5 -12t52 -30t35 -38t19.5 -36l-57 -36q-21 48 -53 69t-67 21q-27 0 -52 -12.5t-45 -36.5t-32 -59t-12 -80t12 -80t32.5 -59t48 -36.5
t58.5 -12.5q35 0 67.5 20t53.5 65zM263 585q-23 0 -38.5 17.5t-15.5 43.5q0 25 15.5 42.5t38.5 17.5t38.5 -17.5t15.5 -42.5q0 -26 -15.5 -43.5t-38.5 -17.5z" />
    <glyph glyph-name="Ccaron" unicode="&#x10c;" horiz-adv-x="569" 
d="M541 121q-13 -24 -32 -48t-45 -43t-60 -31t-77 -12q-59 0 -109.5 19.5t-88 61t-59 106.5t-21.5 157q0 93 23 159.5t60.5 108.5t85 61.5t96.5 19.5q76 0 135 -37t88 -100l-65 -39q-9 18 -23.5 36.5t-34 33t-43 24t-50.5 9.5q-88 0 -137.5 -72t-49.5 -205q0 -65 15 -115.5
t41 -85t61.5 -52t76.5 -17.5q29 0 51.5 8t41 21.5t33 32t26.5 38.5zM286 710l-126 144l45 30l105 -112l106 112l44 -30l-126 -144h-48z" />
    <glyph glyph-name="ccaron" unicode="&#x10d;" horiz-adv-x="474" 
d="M448 102q-28 -58 -76.5 -85.5t-102.5 -27.5q-42 0 -82.5 15t-71.5 46t-50 77.5t-19 109.5q0 67 19 115t50 78.5t70 44.5t78 14q40 0 70.5 -12t52 -30t35 -38t19.5 -36l-57 -36q-21 48 -53 69t-67 21q-27 0 -52 -12.5t-45 -36.5t-32 -59t-12 -80t12 -80t32.5 -59t48 -36.5
t58.5 -12.5q35 0 67.5 20t53.5 65zM234 544l-126 144l45 30l105 -112l106 112l44 -30l-126 -144h-48z" />
    <glyph glyph-name="Dcaron" unicode="&#x10e;" horiz-adv-x="620" 
d="M81 0v667h172q39 0 81 -6.5t78 -23.5t66 -43.5t51.5 -63.5t34 -83.5t12.5 -103.5q0 -70 -16 -125.5t-44.5 -96.5t-67.5 -68t-84 -40q-23 -7 -54.5 -10t-56.5 -3h-172zM161 69h82q22 0 50 2.5t51 11.5q30 13 56.5 34t47 51.5t32 72.5t11.5 98q0 87 -26.5 140t-72.5 83
q-29 19 -68.5 27.5t-76.5 8.5h-86v-529zM245 710l-126 144l45 30l105 -112l106 112l44 -30l-126 -144h-48z" />
    <glyph glyph-name="dcaron" unicode="&#x10f;" horiz-adv-x="524" 
d="M514 497v170h75l-28 -170h-47zM387 0l-6 39q-26 -27 -56.5 -38.5t-66.5 -11.5q-51 0 -90.5 19.5t-66.5 53.5t-41 80.5t-14 100.5q0 46 14.5 90.5t43 79t71.5 55.5t100 21q36 0 62 -5.5t44 -12.5v196h77v-667h-71zM381 404q-6 4 -16.5 8t-23.5 7.5t-27 5.5t-27 2
q-42 0 -73 -16t-51.5 -42.5t-30.5 -60.5t-10 -69q0 -40 9 -74.5t27.5 -59.5t46 -39.5t65.5 -14.5q30 0 59 12.5t52 41.5v299z" />
    <glyph glyph-name="Dcroat" unicode="&#x110;" horiz-adv-x="623" 
d="M81 0v316h-82v62h82v289h173q38 0 80.5 -6.5t77.5 -23.5q72 -34 118 -107t46 -187q0 -70 -16 -125.5t-44 -96.5t-67 -68t-84 -40q-23 -7 -54.5 -10t-56.5 -3h-173zM161 69h82q23 0 50.5 2.5t50.5 11.5q30 13 57 33.5t47 51.5t32 73t12 98q0 87 -27 140t-73 83
q-29 19 -68 27.5t-76 8.5h-87v-220h160v-62h-160v-247z" />
    <glyph glyph-name="dcroat" unicode="&#x111;" horiz-adv-x="524" 
d="M387 0l-6 39q-26 -27 -56.5 -38.5t-66.5 -11.5q-51 0 -90.5 19.5t-66.5 53.5t-41 80.5t-14 100.5q0 46 14.5 90.5t43 79t71.5 55.5t100 21q36 0 62 -5.5t44 -12.5v70h-140v58h140v68h77v-68h65v-58h-65v-541h-71zM381 404q-6 4 -16.5 8t-23.5 7.5t-27 5.5t-27 2
q-42 0 -73 -16t-51.5 -42.5t-30.5 -60.5t-10 -69q0 -40 9 -74.5t27.5 -59.5t46 -39.5t65.5 -14.5q30 0 59 12.5t52 41.5v299z" />
    <glyph glyph-name="Emacron" unicode="&#x112;" horiz-adv-x="514" 
d="M130 773v62h294v-62h-294zM81 0v667h389v-69h-309v-214h221v-69h-222v-246h334v-69h-413z" />
    <glyph glyph-name="emacron" unicode="&#x113;" horiz-adv-x="508" 
d="M122 243q0 -90 41 -141t119 -51q45 0 76 22t50 54l51 -34q-26 -45 -67.5 -74.5t-111.5 -29.5q-54 0 -97 16.5t-73.5 48t-47 78.5t-16.5 109q0 57 15.5 102.5t43 78t67 50t87.5 17.5q53 0 92.5 -18t65.5 -50.5t39 -78t13 -99.5h-347zM382 304q-1 31 -12 54.5t-28 39
t-39 23t-44 7.5q-48 0 -82.5 -28.5t-47.5 -95.5h253zM120 590v62h294v-62h-294z" />
    <glyph glyph-name="Ebreve" unicode="&#x114;" horiz-adv-x="514" 
d="M81 0v667h389v-69h-309v-214h221v-69h-222v-246h334v-69h-413zM201 848q3 -22 11 -36t18.5 -22.5t23.5 -11.5t26 -3q26 0 49 14.5t31 58.5h60q-3 -36 -16.5 -60.5t-34 -39.5t-45 -21.5t-48.5 -6.5t-48 6.5t-43.5 21.5t-32.5 39.5t-14 60.5h63z" />
    <glyph glyph-name="ebreve" unicode="&#x115;" horiz-adv-x="508" 
d="M122 243q0 -90 41 -141t119 -51q45 0 76 22t50 54l51 -34q-26 -45 -67.5 -74.5t-111.5 -29.5q-54 0 -97 16.5t-73.5 48t-47 78.5t-16.5 109q0 57 15.5 102.5t43 78t67 50t87.5 17.5q53 0 92.5 -18t65.5 -50.5t39 -78t13 -99.5h-347zM382 304q-1 31 -12 54.5t-28 39
t-39 23t-44 7.5q-48 0 -82.5 -28.5t-47.5 -95.5h253zM176 682q3 -22 11 -36t18.5 -22.5t23.5 -11.5t26 -3q26 0 49 14.5t31 58.5h60q-3 -36 -16.5 -60.5t-34 -39.5t-45 -21.5t-48.5 -6.5t-48 6.5t-43.5 21.5t-32.5 39.5t-14 60.5h63z" />
    <glyph glyph-name="Edotaccent" unicode="&#x116;" horiz-adv-x="514" 
d="M81 0v667h389v-69h-309v-214h221v-69h-222v-246h334v-69h-413zM274 751q-23 0 -38.5 17.5t-15.5 43.5q0 25 15.5 42.5t38.5 17.5t38.5 -17.5t15.5 -42.5q0 -26 -15.5 -43.5t-38.5 -17.5z" />
    <glyph glyph-name="edotaccent" unicode="&#x117;" horiz-adv-x="508" 
d="M122 243q0 -90 41 -141t119 -51q45 0 76 22t50 54l51 -34q-26 -45 -67.5 -74.5t-111.5 -29.5q-54 0 -97 16.5t-73.5 48t-47 78.5t-16.5 109q0 57 15.5 102.5t43 78t67 50t87.5 17.5q53 0 92.5 -18t65.5 -50.5t39 -78t13 -99.5h-347zM382 304q-1 31 -12 54.5t-28 39
t-39 23t-44 7.5q-48 0 -82.5 -28.5t-47.5 -95.5h253zM253 585q-23 0 -38.5 17.5t-15.5 43.5q0 25 15.5 42.5t38.5 17.5t38.5 -17.5t15.5 -42.5q0 -26 -15.5 -43.5t-38.5 -17.5z" />
    <glyph glyph-name="Eogonek" unicode="&#x118;" horiz-adv-x="514" 
d="M502 -161q-12 -8 -29 -13t-38 -5q-38 0 -62 19.5t-24 58.5q0 22 7.5 40.5t18.5 34.5q11 15 23 26h-317v667h389v-69h-309v-214h221v-69h-222v-246h334v-69h-23q-19 -15 -36 -34q-22 -27 -22 -58q0 -14 7 -23.5t23 -9.5q14 0 23.5 4t17.5 9z" />
    <glyph glyph-name="eogonek" unicode="&#x119;" horiz-adv-x="508" 
d="M393 -161q-12 -8 -29 -13t-38 -5q-38 0 -62 19.5t-24 58.5q0 22 7.5 40.5t18.5 34.5q6 8 12 15q-53 1 -95 16q-43 17 -73.5 48.5t-47 78.5t-16.5 109q0 57 15.5 102.5t43 78t67 50t87.5 17.5q53 0 92.5 -18t65.5 -50.5t39 -78t13 -99.5h-347q0 -90 41 -141t119 -51
q45 0 76 22t50 54l51 -34q-26 -45 -68 -75q-9 -6 -19 -11q-26 -17 -46 -41q-22 -27 -22 -58q0 -14 7 -23.5t23 -9.5q14 0 23.5 4t17.5 9zM382 304q-1 31 -12 54.5t-28 39t-39 23t-44 7.5q-48 0 -82.5 -28.5t-47.5 -95.5h253z" />
    <glyph glyph-name="Ecaron" unicode="&#x11a;" horiz-adv-x="514" 
d="M81 0v667h389v-69h-309v-214h221v-69h-222v-246h334v-69h-413zM254 710l-126 144l45 30l105 -112l106 112l44 -30l-126 -144h-48z" />
    <glyph glyph-name="ecaron" unicode="&#x11b;" horiz-adv-x="508" 
d="M122 243q0 -90 41 -141t119 -51q45 0 76 22t50 54l51 -34q-26 -45 -67.5 -74.5t-111.5 -29.5q-54 0 -97 16.5t-73.5 48t-47 78.5t-16.5 109q0 57 15.5 102.5t43 78t67 50t87.5 17.5q53 0 92.5 -18t65.5 -50.5t39 -78t13 -99.5h-347zM382 304q-1 31 -12 54.5t-28 39
t-39 23t-44 7.5q-48 0 -82.5 -28.5t-47.5 -95.5h253zM236 544l-126 144l45 30l105 -112l106 112l44 -30l-126 -144h-48z" />
    <glyph glyph-name="Gcircumflex" unicode="&#x11c;" horiz-adv-x="597" 
d="M547 25q-15 -6 -37 -13t-50 -12.5t-60 -9t-66 -3.5q-59 0 -110.5 19.5t-90.5 61t-61.5 106.5t-22.5 157q0 94 22.5 160t60 108t86 61.5t100.5 19.5q45 0 79 -9t60 -26t45 -41t34 -54l-64 -39q-23 45 -58.5 71.5t-95.5 26.5q-35 0 -68.5 -16t-59 -50t-41 -87t-15.5 -126
q0 -65 16 -116t43.5 -86t64 -53t77.5 -18q45 0 78 5.5t54 12.5v174h-110v70h190v-294zM178 740l126 144h48l126 -144l-44 -30l-106 112l-105 -112z" />
    <glyph glyph-name="gcircumflex" unicode="&#x11d;" horiz-adv-x="520" 
d="M427 427q18 -20 29 -45.5t11 -57.5q0 -42 -17.5 -73.5t-46.5 -52.5t-67 -31t-78 -10q-13 0 -32.5 2t-30.5 4q-16 -2 -30 -10.5t-14 -22.5q0 -16 23.5 -23.5t85.5 -8.5q60 -1 106 -8t78 -23t48.5 -43.5t16.5 -69.5q0 -39 -18 -68t-49 -48.5t-72.5 -29.5t-87.5 -10
q-115 0 -178.5 35t-63.5 110q0 77 70 114q-18 8 -30 22t-12 36q0 28 21.5 46t53.5 26q-12 6 -27.5 17t-29 28t-22.5 39.5t-9 52.5q0 42 17.5 73t46.5 51.5t65.5 30.5t74.5 10q30 0 58.5 -5.5t54.5 -17.5l71 71l49 -45zM139 284q9 -19 25.5 -34t39.5 -24t52 -9q24 0 47.5 5.5
t43 18t31.5 33.5t12 51q0 25 -11 44.5t-29 32t-41.5 19t-48.5 6.5q-24 0 -47.5 -6.5t-41.5 -19t-29 -32t-11 -45.5q0 -21 8 -40zM259 32q-67 2 -92 6q-26 -13 -42 -34t-16 -54q0 -23 13 -40t36 -28.5t54.5 -17.5t69.5 -6q69 0 112.5 25t43.5 67q0 21 -8 36t-28.5 25t-55 15
t-87.5 6zM110 574l126 144h48l126 -144l-44 -30l-106 112l-105 -112z" />
    <glyph glyph-name="Gbreve" unicode="&#x11e;" horiz-adv-x="597" 
d="M547 25q-15 -6 -37 -13t-50 -12.5t-60 -9t-66 -3.5q-59 0 -110.5 19.5t-90.5 61t-61.5 106.5t-22.5 157q0 94 22.5 160t60 108t86 61.5t100.5 19.5q45 0 79 -9t60 -26t45 -41t34 -54l-64 -39q-23 45 -58.5 71.5t-95.5 26.5q-35 0 -68.5 -16t-59 -50t-41 -87t-15.5 -126
q0 -65 16 -116t43.5 -86t64 -53t77.5 -18q45 0 78 5.5t54 12.5v174h-110v70h190v-294zM236 848q3 -22 11 -36t18.5 -22.5t23.5 -11.5t26 -3q26 0 49 14.5t31 58.5h60q-3 -36 -16.5 -60.5t-34 -39.5t-45 -21.5t-48.5 -6.5t-48 6.5t-43.5 21.5t-32.5 39.5t-14 60.5h63z" />
    <glyph glyph-name="gbreve" unicode="&#x11f;" horiz-adv-x="520" 
d="M427 427q18 -20 29 -45.5t11 -57.5q0 -42 -17.5 -73.5t-46.5 -52.5t-67 -31t-78 -10q-13 0 -32.5 2t-30.5 4q-16 -2 -30 -10.5t-14 -22.5q0 -16 23.5 -23.5t85.5 -8.5q60 -1 106 -8t78 -23t48.5 -43.5t16.5 -69.5q0 -39 -18 -68t-49 -48.5t-72.5 -29.5t-87.5 -10
q-115 0 -178.5 35t-63.5 110q0 77 70 114q-18 8 -30 22t-12 36q0 28 21.5 46t53.5 26q-12 6 -27.5 17t-29 28t-22.5 39.5t-9 52.5q0 42 17.5 73t46.5 51.5t65.5 30.5t74.5 10q30 0 58.5 -5.5t54.5 -17.5l71 71l49 -45zM139 284q9 -19 25.5 -34t39.5 -24t52 -9q24 0 47.5 5.5
t43 18t31.5 33.5t12 51q0 25 -11 44.5t-29 32t-41.5 19t-48.5 6.5q-24 0 -47.5 -6.5t-41.5 -19t-29 -32t-11 -45.5q0 -21 8 -40zM259 32q-67 2 -92 6q-26 -13 -42 -34t-16 -54q0 -23 13 -40t36 -28.5t54.5 -17.5t69.5 -6q69 0 112.5 25t43.5 67q0 21 -8 36t-28.5 25t-55 15
t-87.5 6zM181 682q3 -22 11 -36t18.5 -22.5t23.5 -11.5t26 -3q26 0 49 14.5t31 58.5h60q-3 -36 -16.5 -60.5t-34 -39.5t-45 -21.5t-48.5 -6.5t-48 6.5t-43.5 21.5t-32.5 39.5t-14 60.5h63z" />
    <glyph glyph-name="Gdotaccent" unicode="&#x120;" horiz-adv-x="597" 
d="M547 25q-15 -6 -37 -13t-50 -12.5t-60 -9t-66 -3.5q-59 0 -110.5 19.5t-90.5 61t-61.5 106.5t-22.5 157q0 94 22.5 160t60 108t86 61.5t100.5 19.5q45 0 79 -9t60 -26t45 -41t34 -54l-64 -39q-23 45 -58.5 71.5t-95.5 26.5q-35 0 -68.5 -16t-59 -50t-41 -87t-15.5 -126
q0 -65 16 -116t43.5 -86t64 -53t77.5 -18q45 0 78 5.5t54 12.5v174h-110v70h190v-294zM328 751q-23 0 -38.5 17.5t-15.5 43.5q0 25 15.5 42.5t38.5 17.5t38.5 -17.5t15.5 -42.5q0 -26 -15.5 -43.5t-38.5 -17.5z" />
    <glyph glyph-name="gdotaccent" unicode="&#x121;" horiz-adv-x="520" 
d="M427 427q18 -20 29 -45.5t11 -57.5q0 -42 -17.5 -73.5t-46.5 -52.5t-67 -31t-78 -10q-13 0 -32.5 2t-30.5 4q-16 -2 -30 -10.5t-14 -22.5q0 -16 23.5 -23.5t85.5 -8.5q60 -1 106 -8t78 -23t48.5 -43.5t16.5 -69.5q0 -39 -18 -68t-49 -48.5t-72.5 -29.5t-87.5 -10
q-115 0 -178.5 35t-63.5 110q0 77 70 114q-18 8 -30 22t-12 36q0 28 21.5 46t53.5 26q-12 6 -27.5 17t-29 28t-22.5 39.5t-9 52.5q0 42 17.5 73t46.5 51.5t65.5 30.5t74.5 10q30 0 58.5 -5.5t54.5 -17.5l71 71l49 -45zM139 284q9 -19 25.5 -34t39.5 -24t52 -9q24 0 47.5 5.5
t43 18t31.5 33.5t12 51q0 25 -11 44.5t-29 32t-41.5 19t-48.5 6.5q-24 0 -47.5 -6.5t-41.5 -19t-29 -32t-11 -45.5q0 -21 8 -40zM259 32q-67 2 -92 6q-26 -13 -42 -34t-16 -54q0 -23 13 -40t36 -28.5t54.5 -17.5t69.5 -6q69 0 112.5 25t43.5 67q0 21 -8 36t-28.5 25t-55 15
t-87.5 6zM264 585q-23 0 -38.5 17.5t-15.5 43.5q0 25 15.5 42.5t38.5 17.5t38.5 -17.5t15.5 -42.5q0 -26 -15.5 -43.5t-38.5 -17.5z" />
    <glyph glyph-name="Gcommaaccent" unicode="&#x122;" horiz-adv-x="597" 
d="M547 25q-15 -6 -37 -13t-50 -12.5t-60 -9t-66 -3.5q-59 0 -110.5 19.5t-90.5 61t-61.5 106.5t-22.5 157q0 94 22.5 160t60 108t86 61.5t100.5 19.5q45 0 79 -9t60 -26t45 -41t34 -54l-64 -39q-23 45 -58.5 71.5t-95.5 26.5q-35 0 -68.5 -16t-59 -50t-41 -87t-15.5 -126
q0 -65 16 -116t43.5 -86t64 -53t77.5 -18q45 0 78 5.5t54 12.5v174h-110v70h190v-294zM246 -174l51 130h82l-72 -130h-61z" />
    <glyph glyph-name="gcommaaccent" unicode="&#x123;" horiz-adv-x="520" 
d="M427 427q18 -20 29 -45.5t11 -57.5q0 -42 -17.5 -73.5t-46.5 -52.5t-67 -31t-78 -10q-13 0 -32.5 2t-30.5 4q-16 -2 -30 -10.5t-14 -22.5q0 -16 23.5 -23.5t85.5 -8.5q60 -1 106 -8t78 -23t48.5 -43.5t16.5 -69.5q0 -39 -18 -68t-49 -48.5t-72.5 -29.5t-87.5 -10
q-115 0 -178.5 35t-63.5 110q0 77 70 114q-18 8 -30 22t-12 36q0 28 21.5 46t53.5 26q-12 6 -27.5 17t-29 28t-22.5 39.5t-9 52.5q0 42 17.5 73t46.5 51.5t65.5 30.5t74.5 10q30 0 58.5 -5.5t54.5 -17.5l71 71l49 -45zM139 284q9 -19 25.5 -34t39.5 -24t52 -9q24 0 47.5 5.5
t43 18t31.5 33.5t12 51q0 25 -11 44.5t-29 32t-41.5 19t-48.5 6.5q-24 0 -47.5 -6.5t-41.5 -19t-29 -32t-11 -45.5q0 -21 8 -40zM259 32q-67 2 -92 6q-26 -13 -42 -34t-16 -54q0 -23 13 -40t36 -28.5t54.5 -17.5t69.5 -6q69 0 112.5 25t43.5 67q0 21 -8 36t-28.5 25t-55 15
t-87.5 6zM222 569l72 130h61l-51 -130h-82z" />
    <glyph glyph-name="Hcircumflex" unicode="&#x124;" horiz-adv-x="655" 
d="M81 0v667h80v-289h334v289h79v-667h-79v307h-334v-307h-80zM189 740l126 144h48l126 -144l-44 -30l-106 112l-105 -112z" />
    <glyph glyph-name="hcircumflex" unicode="&#x125;" horiz-adv-x="539" 
d="M69 0v667h77v-228q29 21 66 35.5t83 14.5q97 0 137.5 -49t40.5 -143v-297h-78v298q0 66 -27 97.5t-87 31.5q-38 0 -73.5 -17.5t-61.5 -36.5v-373h-77zM92 740l126 144h48l126 -144l-44 -30l-106 112l-105 -112z" />
    <glyph glyph-name="Hbar" unicode="&#x126;" horiz-adv-x="655" 
d="M81 0v488h-90v62h90v117h80v-117h334v117h79v-117h89v-62h-89v-488h-79v307h-334v-307h-80zM161 378h334v110h-334v-110z" />
    <glyph glyph-name="hbar" unicode="&#x127;" horiz-adv-x="539" 
d="M69 0v547h-66v62h66v58h77v-58h199v-62h-199v-108q29 21 66 35.5t83 14.5q97 0 137.5 -49t40.5 -143v-297h-78v298q0 66 -27 97.5t-87 31.5q-38 0 -73.5 -17.5t-61.5 -36.5v-373h-77z" />
    <glyph glyph-name="Itilde" unicode="&#x128;" horiz-adv-x="242" 
d="M81 0v667h80v-667h-80zM-50 758q14 45 41.5 72t62.5 27q22 0 43 -11.5t41 -23.5q9 -6 23 -14t28 -8q15 0 30 13t29 46l49 -24q-16 -46 -43 -72t-62 -26q-19 0 -37 8.5t-35 19.5q-11 6 -29 17.5t-34 11.5q-17 0 -30.5 -13.5t-27.5 -45.5z" />
    <glyph glyph-name="itilde" unicode="&#x129;" horiz-adv-x="215" 
d="M69 0v477h77v-477h-77zM-64 592q14 45 41.5 72t62.5 27q22 0 43 -11.5t41 -23.5q9 -6 23 -14t28 -8q15 0 30 13t29 46l49 -24q-16 -46 -43 -72t-62 -26q-19 0 -37 8.5t-35 19.5q-11 6 -29 17.5t-34 11.5q-17 0 -30.5 -13.5t-27.5 -45.5z" />
    <glyph glyph-name="Imacron" unicode="&#x12a;" horiz-adv-x="242" 
d="M-29 773v62h294v-62h-294zM81 0v667h80v-667h-80z" />
    <glyph glyph-name="imacron" unicode="&#x12b;" horiz-adv-x="215" 
d="M69 0v477h77v-477h-77zM-34 590v62h294v-62h-294z" />
    <glyph glyph-name="Ibreve" unicode="&#x12c;" horiz-adv-x="242" 
d="M81 0v667h80v-667h-80zM45 848q3 -22 11 -36t18.5 -22.5t23.5 -11.5t26 -3q26 0 49 14.5t31 58.5h60q-3 -36 -16.5 -60.5t-34 -39.5t-45 -21.5t-48.5 -6.5t-48 6.5t-43.5 21.5t-32.5 39.5t-14 60.5h63z" />
    <glyph glyph-name="ibreve" unicode="&#x12d;" horiz-adv-x="215" 
d="M69 0v477h77v-477h-77zM32 682q3 -22 11 -36t18.5 -22.5t23.5 -11.5t26 -3q26 0 49 14.5t31 58.5h60q-3 -36 -16.5 -60.5t-34 -39.5t-45 -21.5t-48.5 -6.5t-48 6.5t-43.5 21.5t-32.5 39.5t-14 60.5h63z" />
    <glyph glyph-name="Iogonek" unicode="&#x12e;" horiz-adv-x="242" 
d="M176 -161q-12 -8 -29 -13t-38 -5q-38 0 -62 19.5t-24 58.5q0 22 7.5 40.5t19 34.5t25.5 28q3 2 6 5v660h80v-667h-16q-19 -15 -36 -34q-22 -27 -22 -58q0 -14 7 -23.5t23 -9.5q14 0 23.5 4t17.5 9z" />
    <glyph glyph-name="iogonek" unicode="&#x12f;" horiz-adv-x="216" 
d="M160 -161q-12 -8 -29 -13t-38 -5q-38 0 -62 19.5t-24 58.5q0 22 7.5 40.5t19 34.5t25.5 28l10 8v467h78v-477h-18q-19 -15 -36 -34q-22 -27 -22 -58q0 -14 7 -23.5t23 -9.5q14 0 23.5 4t17.5 9zM108 553q-21 0 -36 16.5t-15 40.5q0 23 15 40t36 17t36 -17t15 -40
q0 -24 -15 -40.5t-36 -16.5z" />
    <glyph glyph-name="Idotaccent" unicode="&#x130;" horiz-adv-x="242" 
d="M81 0v667h80v-667h-80zM124 751q-23 0 -38.5 17.5t-15.5 43.5q0 25 15.5 42.5t38.5 17.5t38.5 -17.5t15.5 -42.5q0 -26 -15.5 -43.5t-38.5 -17.5z" />
    <glyph glyph-name="dotlessi" unicode="&#x131;" horiz-adv-x="215" 
d="M69 0v477h77v-477h-77z" />
    <glyph glyph-name="IJ" unicode="&#x132;" horiz-adv-x="487" 
d="M81 0v667h80v-667h-80zM203 -67q60 10 91.5 35t31.5 73v626h80v-624q0 -82 -51 -124.5t-138 -52.5z" />
    <glyph glyph-name="ij" unicode="&#x133;" horiz-adv-x="425" 
d="M108 553q-21 0 -36 16.5t-15 40.5q0 23 15 40t36 17t36 -17t15 -40q0 -24 -15 -40.5t-36 -16.5zM69 0v477h78v-477h-78zM315 553q-21 0 -36 16.5t-15 40.5q0 23 15 40t36 17t36 -17t15 -40q0 -24 -15 -40.5t-36 -16.5zM207 -142q18 13 31.5 26.5t21.5 29.5t12 36.5
t4 47.5v479h78v-479q0 -77 -29 -121.5t-80 -73.5z" />
    <glyph glyph-name="Jcircumflex" unicode="&#x134;" horiz-adv-x="239" 
d="M-39 -67q60 10 91.5 35t31.5 73v626h80v-624q0 -82 -51 -124.5t-138 -52.5zM-25 740l126 144h48l126 -144l-44 -30l-106 112l-105 -112z" />
    <glyph glyph-name="jcircumflex" unicode="&#x135;" horiz-adv-x="214" 
d="M-4 -142q18 13 31.5 26.5t21.5 29.5t12 36.5t4 47.5v479h78v-479q0 -77 -29 -121.5t-80 -73.5zM-41 574l126 144h48l126 -144l-44 -30l-106 112l-105 -112z" />
    <glyph glyph-name="Kcommaaccent" unicode="&#x136;" horiz-adv-x="562" 
d="M81 0v667h80v-293l287 293h95l-257 -262l271 -405h-96l-231 347l-69 -71v-276h-80zM220 -174l51 130h82l-72 -130h-61z" />
    <glyph glyph-name="kcommaaccent" unicode="&#x137;" horiz-adv-x="477" 
d="M69 0v667h77v-371l193 181h98l-163 -154l205 -323h-89l-173 270l-71 -65v-205h-77zM177 -174l51 130h82l-72 -130h-61z" />
    <glyph glyph-name="kgreenlandic" unicode="&#x138;" horiz-adv-x="477" 
d="M69 0v477h77v-235l201 235h90l-163 -192l205 -285h-89l-168 228l-76 -89v-139h-77z" />
    <glyph glyph-name="Lacute" unicode="&#x139;" horiz-adv-x="490" 
d="M81 0v667h80v-598h309v-69h-389zM121 710l-37 37l167 139l51 -52z" />
    <glyph glyph-name="lacute" unicode="&#x13a;" horiz-adv-x="215" 
d="M69 0v667h77v-667h-77zM59 710l-37 37l167 139l51 -52z" />
    <glyph glyph-name="Lcommaaccent" unicode="&#x13b;" horiz-adv-x="490" 
d="M81 0v667h80v-598h309v-69h-389zM189 -174l51 130h82l-72 -130h-61z" />
    <glyph glyph-name="lcommaaccent" unicode="&#x13c;" horiz-adv-x="215" 
d="M69 0v667h77v-667h-77zM12 -174l51 130h82l-72 -130h-61z" />
    <glyph glyph-name="Lcaron" unicode="&#x13d;" horiz-adv-x="490" 
d="M81 0v667h80v-598h309v-69h-389zM231 497v170h75l-28 -170h-47z" />
    <glyph glyph-name="lcaron" unicode="&#x13e;" horiz-adv-x="252" 
d="M69 0v667h77v-667h-77zM197 497v170h75l-28 -170h-47z" />
    <glyph glyph-name="Ldot" unicode="&#x13f;" horiz-adv-x="490" 
d="M81 0v667h80v-598h309v-69h-389zM360 303q-23 0 -38.5 17.5t-15.5 43.5q0 25 15.5 42.5t38.5 17.5t38.5 -17.5t15.5 -42.5q0 -26 -15.5 -43.5t-38.5 -17.5z" />
    <glyph glyph-name="ldot" unicode="&#x140;" horiz-adv-x="307" 
d="M69 0v667h77v-667h-77zM261 303q-23 0 -38.5 17.5t-15.5 43.5q0 25 15.5 42.5t38.5 17.5t38.5 -17.5t15.5 -42.5q0 -26 -15.5 -43.5t-38.5 -17.5z" />
    <glyph glyph-name="Lslash" unicode="&#x141;" horiz-adv-x="498" 
d="M81 0v290l-80 -53l-28 48l108 72v310h80v-258l121 80l31 -48l-152 -99v-273h309v-69h-389z" />
    <glyph glyph-name="lslash" unicode="&#x142;" horiz-adv-x="231" 
d="M77 0v280l-79 -51l-28 50l107 69v319h77v-269l78 50l31 -49l-109 -70v-329h-77z" />
    <glyph glyph-name="Nacute" unicode="&#x143;" horiz-adv-x="658" 
d="M81 0v667h81l336 -497v497h79v-667h-59l-358 529v-529h-79zM299 710l-37 37l167 139l51 -52z" />
    <glyph glyph-name="nacute" unicode="&#x144;" horiz-adv-x="541" 
d="M69 0v477h71l5 -38q29 22 68.5 36t82.5 14q98 0 138.5 -48.5t40.5 -143.5v-297h-77v299q0 60 -27 94t-88 34q-38 0 -74.5 -16.5t-62.5 -36.5v-374h-77zM211 544l-37 37l167 139l51 -52z" />
    <glyph glyph-name="Ncommaaccent" unicode="&#x145;" horiz-adv-x="658" 
d="M81 0v667h81l336 -497v497h79v-667h-59l-358 529v-529h-79zM268 -174l51 130h82l-72 -130h-61z" />
    <glyph glyph-name="ncommaaccent" unicode="&#x146;" horiz-adv-x="541" 
d="M69 0v477h71l5 -38q29 22 68.5 36t82.5 14q98 0 138.5 -48.5t40.5 -143.5v-297h-77v299q0 60 -27 94t-88 34q-38 0 -74.5 -16.5t-62.5 -36.5v-374h-77zM197 -174l51 130h82l-72 -130h-61z" />
    <glyph glyph-name="Ncaron" unicode="&#x147;" horiz-adv-x="658" 
d="M81 0v667h81l336 -497v497h79v-667h-59l-358 529v-529h-79zM315 710l-126 144l45 30l105 -112l106 112l44 -30l-126 -144h-48z" />
    <glyph glyph-name="ncaron" unicode="&#x148;" horiz-adv-x="541" 
d="M69 0v477h71l5 -38q29 22 68.5 36t82.5 14q98 0 138.5 -48.5t40.5 -143.5v-297h-77v299q0 60 -27 94t-88 34q-38 0 -74.5 -16.5t-62.5 -36.5v-374h-77zM256 544l-126 144l45 30l105 -112l106 112l44 -30l-126 -144h-48z" />
    <glyph glyph-name="napostrophe" unicode="&#x149;" horiz-adv-x="585" 
d="M113 0v477h71l5 -38q29 22 68.5 36t82.5 14q98 0 138.5 -48.5t40.5 -143.5v-297h-77v299q0 60 -27 94t-88 34q-38 0 -74.5 -16.5t-62.5 -36.5v-374h-77zM57 519q16 6 35 18.5t27 26.5q-8 5 -18.5 18t-10.5 37q0 23 11.5 39t34.5 16t35 -16t12 -41q0 -23 -10.5 -43
t-27 -36t-37 -28t-41.5 -19z" />
    <glyph glyph-name="Eng" unicode="&#x14a;" horiz-adv-x="658" 
d="M81 0v667h81l336 -497v497h79v-669q0 -77 -29 -121.5t-80 -73.5l-38 55q18 13 31.5 26.5t22 29.5t12.5 36.5t4 47.5v28l-340 503v-529h-79z" />
    <glyph glyph-name="eng" unicode="&#x14b;" horiz-adv-x="541" 
d="M69 0v477h71l5 -38q29 22 68.5 36t82.5 14q98 0 138.5 -48.5t40.5 -143.5v-299q0 -77 -29 -121.5t-80 -73.5l-38 55q18 13 31.5 26.5t22 29.5t12.5 36.5t4 47.5v301q0 60 -27 94t-88 34q-38 0 -74.5 -16.5t-62.5 -36.5v-374h-77z" />
    <glyph glyph-name="Omacron" unicode="&#x14c;" horiz-adv-x="661" 
d="M181 773v62h294v-62h-294zM204 17q-53 30 -87.5 78.5t-51 111t-16.5 127.5t16.5 127t51 111t87.5 78.5t127 29.5q73 0 126 -29.5t87.5 -78.5t51 -111t16.5 -127t-16.5 -127.5t-51 -111t-87.5 -78.5t-126 -30q-74 0 -127 30zM181 144q25 -39 62 -62.5t88 -23.5t88 23.5
t61 62.5t36 88.5t12 101.5q0 51 -11.5 100.5t-35.5 88.5t-61.5 62.5t-88.5 23.5t-88.5 -23.5t-62 -62.5t-36 -88.5t-11.5 -100.5q0 -52 12 -101.5t36 -88.5z" />
    <glyph glyph-name="omacron" unicode="&#x14d;" horiz-adv-x="536" 
d="M171 10q-41 22 -69 57.5t-42 81t-14 92.5t13.5 91.5t41.5 79.5t69.5 56t97.5 21q55 0 97 -21.5t69.5 -56.5t41.5 -80t14 -92t-14 -92t-41.5 -80t-69.5 -56.5t-97 -21.5t-97 21zM158 110q19 -26 46.5 -42.5t63.5 -16.5q37 0 64.5 16.5t46 43t27.5 60.5t9 69t-9 69
t-27.5 60.5t-46 42.5t-64.5 16t-64.5 -16t-45.5 -42.5t-27 -60t-9 -68.5q0 -36 9 -70t27 -61zM130 590v62h294v-62h-294z" />
    <glyph glyph-name="Obreve" unicode="&#x14e;" horiz-adv-x="661" 
d="M204 17q-53 30 -87.5 78.5t-51 111t-16.5 127.5t16.5 127t51 111t87.5 78.5t127 29.5q73 0 126 -29.5t87.5 -78.5t51 -111t16.5 -127t-16.5 -127.5t-51 -111t-87.5 -78.5t-126 -30q-74 0 -127 30zM181 144q25 -39 62 -62.5t88 -23.5t88 23.5t61 62.5t36 88.5t12 101.5
q0 51 -11.5 100.5t-35.5 88.5t-61.5 62.5t-88.5 23.5t-88.5 -23.5t-62 -62.5t-36 -88.5t-11.5 -100.5q0 -52 12 -101.5t36 -88.5zM252 848q3 -22 11 -36t18.5 -22.5t23.5 -11.5t26 -3q26 0 49 14.5t31 58.5h60q-3 -36 -16.5 -60.5t-34 -39.5t-45 -21.5t-48.5 -6.5t-48 6.5
t-43.5 21.5t-32.5 39.5t-14 60.5h63z" />
    <glyph glyph-name="obreve" unicode="&#x14f;" horiz-adv-x="536" 
d="M171 10q-41 22 -69 57.5t-42 81t-14 92.5t13.5 91.5t41.5 79.5t69.5 56t97.5 21q55 0 97 -21.5t69.5 -56.5t41.5 -80t14 -92t-14 -92t-41.5 -80t-69.5 -56.5t-97 -21.5t-97 21zM158 110q19 -26 46.5 -42.5t63.5 -16.5q37 0 64.5 16.5t46 43t27.5 60.5t9 69t-9 69
t-27.5 60.5t-46 42.5t-64.5 16t-64.5 -16t-45.5 -42.5t-27 -60t-9 -68.5q0 -36 9 -70t27 -61zM190 682q3 -22 11 -36t18.5 -22.5t23.5 -11.5t26 -3q26 0 49 14.5t31 58.5h60q-3 -36 -16.5 -60.5t-34 -39.5t-45 -21.5t-48.5 -6.5t-48 6.5t-43.5 21.5t-32.5 39.5t-14 60.5h63z
" />
    <glyph glyph-name="Ohungarumlaut" unicode="&#x150;" horiz-adv-x="661" 
d="M204 17q-53 30 -87.5 78.5t-51 111t-16.5 127.5t16.5 127t51 111t87.5 78.5t127 29.5q73 0 126 -29.5t87.5 -78.5t51 -111t16.5 -127t-16.5 -127.5t-51 -111t-87.5 -78.5t-126 -30q-74 0 -127 30zM181 144q25 -39 62 -62.5t88 -23.5t88 23.5t61 62.5t36 88.5t12 101.5
q0 51 -11.5 100.5t-35.5 88.5t-61.5 62.5t-88.5 23.5t-88.5 -23.5t-62 -62.5t-36 -88.5t-11.5 -100.5q0 -52 12 -101.5t36 -88.5zM392 710l-36 37l166 139l52 -52zM207 710l-36 37l167 139l51 -52z" />
    <glyph glyph-name="ohungarumlaut" unicode="&#x151;" horiz-adv-x="536" 
d="M171 10q-41 22 -69 57.5t-42 81t-14 92.5t13.5 91.5t41.5 79.5t69.5 56t97.5 21q55 0 97 -21.5t69.5 -56.5t41.5 -80t14 -92t-14 -92t-41.5 -80t-69.5 -56.5t-97 -21.5t-97 21zM158 110q19 -26 46.5 -42.5t63.5 -16.5q37 0 64.5 16.5t46 43t27.5 60.5t9 69t-9 69
t-27.5 60.5t-46 42.5t-64.5 16t-64.5 -16t-45.5 -42.5t-27 -60t-9 -68.5q0 -36 9 -70t27 -61zM324 544l-36 37l166 139l52 -52zM139 544l-36 37l167 139l51 -52z" />
    <glyph glyph-name="OE" unicode="&#x152;" horiz-adv-x="875" 
d="M405 0q-85 0 -151 23.5t-111.5 68t-69.5 108t-24 143.5q0 156 93 240t263 84h422v-69h-290v-214h202v-69h-202v-246h313v-69h-445zM456 69v529h-52q-129 0 -200 -65t-71 -194q0 -133 73 -201.5t202 -68.5h48z" />
    <glyph glyph-name="oe" unicode="&#x153;" horiz-adv-x="830" 
d="M463 243q0 -43 9 -78.5t27 -60.5t46 -39t67 -14q43 0 70.5 20t44.5 52l54 -29q-26 -48 -70 -76.5t-101 -28.5q-70 0 -114 26.5t-68 68.5q-26 -42 -68 -68.5t-103 -26.5q-55 0 -95 21.5t-65.5 57t-38 81t-12.5 92.5t12 91.5t37.5 79.5t66 56t96.5 21q34 0 60.5 -7.5
t47 -20t35.5 -29.5t26 -36q23 38 62 65.5t100 27.5q52 0 90.5 -19t63 -52t36.5 -78t12 -97h-328zM704 304q-3 63 -36 93.5t-79 30.5t-82 -32t-44 -92h241zM153 110q16 -26 42 -42.5t62 -16.5q37 0 62.5 16.5t42 43t24 60.5t7.5 69t-7.5 69t-24 60.5t-42 42.5t-62.5 16
t-62.5 -16t-41.5 -42.5t-23.5 -60t-7.5 -68.5q0 -36 7.5 -70t23.5 -61z" />
    <glyph glyph-name="Racute" unicode="&#x154;" horiz-adv-x="551" 
d="M81 0v667h214q112 0 165 -50t53 -132q0 -44 -12.5 -76.5t-35 -55t-53 -36.5t-65.5 -20l182 -297h-91l-180 292h-97v-292h-80zM161 361h129q139 0 139 124q0 57 -34 85t-98 28h-136v-237zM201 710l-37 37l167 139l51 -52z" />
    <glyph glyph-name="racute" unicode="&#x155;" horiz-adv-x="322" 
d="M69 0v477h70l6 -42q19 20 49 37t61 17q22 0 40.5 -3t28.5 -6l-14 -71q-25 11 -63 11q-29 0 -55.5 -16t-45.5 -33v-371h-77zM144 544l-37 37l167 139l51 -52z" />
    <glyph glyph-name="Rcommaaccent" unicode="&#x156;" horiz-adv-x="551" 
d="M81 0v667h214q112 0 165 -50t53 -132q0 -44 -12.5 -76.5t-35 -55t-53 -36.5t-65.5 -20l182 -297h-91l-180 292h-97v-292h-80zM161 361h129q139 0 139 124q0 57 -34 85t-98 28h-136v-237zM214 -174l51 130h82l-72 -130h-61z" />
    <glyph glyph-name="rcommaaccent" unicode="&#x157;" horiz-adv-x="322" 
d="M69 0v477h70l6 -42q19 20 49 37t61 17q22 0 40.5 -3t28.5 -6l-14 -71q-25 11 -63 11q-29 0 -55.5 -16t-45.5 -33v-371h-77zM11 -174l51 130h82l-72 -130h-61z" />
    <glyph glyph-name="Rcaron" unicode="&#x158;" horiz-adv-x="551" 
d="M81 0v667h214q112 0 165 -50t53 -132q0 -44 -12.5 -76.5t-35 -55t-53 -36.5t-65.5 -20l182 -297h-91l-180 292h-97v-292h-80zM161 361h129q139 0 139 124q0 57 -34 85t-98 28h-136v-237zM245 710l-126 144l45 30l105 -112l106 112l44 -30l-126 -144h-48z" />
    <glyph glyph-name="rcaron" unicode="&#x159;" horiz-adv-x="322" 
d="M69 0v477h70l6 -42q19 20 49 37t61 17q22 0 40.5 -3t28.5 -6l-14 -71q-25 11 -63 11q-29 0 -55.5 -16t-45.5 -33v-371h-77zM197 544l-126 144l45 30l105 -112l106 112l44 -30l-126 -144h-48z" />
    <glyph glyph-name="Sacute" unicode="&#x15a;" horiz-adv-x="516" 
d="M93 143q29 -42 76 -63t96 -21q26 0 49.5 6.5t41 20t28 35.5t10.5 52q0 28 -13 49.5t-35 38.5t-50 30.5t-58 26.5q-34 15 -67 30.5t-59.5 37.5t-43 51t-16.5 71q0 43 17.5 75.5t47 54t67 32t78.5 10.5q63 0 121 -25t94 -79l-61 -48q-26 36 -66.5 58.5t-88.5 22.5
q-59 0 -91.5 -26.5t-32.5 -70.5q0 -25 11.5 -42.5t32 -32t49.5 -27.5t65 -29q34 -15 67 -32t59 -40t42 -54t16 -74q0 -51 -17.5 -88t-47.5 -61t-69.5 -35t-84.5 -11q-34 0 -67.5 7.5t-64 21.5t-56 34.5t-42.5 46.5zM219 710l-37 37l167 139l51 -52z" />
    <glyph glyph-name="sacute" unicode="&#x15b;" horiz-adv-x="412" 
d="M95 118q17 -32 43.5 -49.5t71.5 -17.5q98 0 98 70q0 21 -6.5 35.5t-21 26t-37.5 22t-56 22.5q-36 12 -61 25.5t-41 29.5t-23.5 36t-7.5 47q0 58 42.5 91t112.5 33q58 0 97 -19.5t66 -55.5l-54 -43q-20 24 -47 40t-61 16q-42 0 -62.5 -16.5t-20.5 -40.5q0 -15 5.5 -26.5
t19.5 -21t36.5 -19t57.5 -21.5q66 -23 100 -58t34 -93q0 -34 -13 -60.5t-35.5 -44.5t-53.5 -27.5t-68 -9.5q-71 0 -111 26t-64 66zM164 544l-37 37l167 139l51 -52z" />
    <glyph glyph-name="Scircumflex" unicode="&#x15c;" horiz-adv-x="516" 
d="M93 143q29 -42 76 -63t96 -21q26 0 49.5 6.5t41 20t28 35.5t10.5 52q0 28 -13 49.5t-35 38.5t-50 30.5t-58 26.5q-34 15 -67 30.5t-59.5 37.5t-43 51t-16.5 71q0 43 17.5 75.5t47 54t67 32t78.5 10.5q63 0 121 -25t94 -79l-61 -48q-26 36 -66.5 58.5t-88.5 22.5
q-59 0 -91.5 -26.5t-32.5 -70.5q0 -25 11.5 -42.5t32 -32t49.5 -27.5t65 -29q34 -15 67 -32t59 -40t42 -54t16 -74q0 -51 -17.5 -88t-47.5 -61t-69.5 -35t-84.5 -11q-34 0 -67.5 7.5t-64 21.5t-56 34.5t-42.5 46.5zM118 740l126 144h48l126 -144l-44 -30l-106 112l-105 -112
z" />
    <glyph glyph-name="scircumflex" unicode="&#x15d;" horiz-adv-x="412" 
d="M95 118q17 -32 43.5 -49.5t71.5 -17.5q98 0 98 70q0 21 -6.5 35.5t-21 26t-37.5 22t-56 22.5q-36 12 -61 25.5t-41 29.5t-23.5 36t-7.5 47q0 58 42.5 91t112.5 33q58 0 97 -19.5t66 -55.5l-54 -43q-20 24 -47 40t-61 16q-42 0 -62.5 -16.5t-20.5 -40.5q0 -15 5.5 -26.5
t19.5 -21t36.5 -19t57.5 -21.5q66 -23 100 -58t34 -93q0 -34 -13 -60.5t-35.5 -44.5t-53.5 -27.5t-68 -9.5q-71 0 -111 26t-64 66zM58 574l126 144h48l126 -144l-44 -30l-106 112l-105 -112z" />
    <glyph glyph-name="Scedilla" unicode="&#x15e;" horiz-adv-x="516" 
d="M93 143q29 -42 76 -63t96 -21q26 0 49.5 6.5t41 20t28 35.5t10.5 52q0 28 -13 49.5t-35 38.5t-50 30.5t-58 26.5q-34 15 -67 30.5t-59.5 37.5t-43 51t-16.5 71q0 43 17.5 75.5t47 54t67 32t78.5 10.5q63 0 121 -25t94 -79l-61 -48q-26 36 -66.5 58.5t-88.5 22.5
q-59 0 -91.5 -26.5t-32.5 -70.5q0 -25 11.5 -42.5t32 -32t49.5 -27.5t65 -29q34 -15 67 -32t59 -40t42 -54t16 -74q0 -51 -17.5 -88t-47.5 -61t-69.5 -35t-84.5 -11q-34 0 -67.5 7.5t-64 21.5t-56 34.5t-42.5 46.5zM167 -174l51 130h82l-72 -130h-61z" />
    <glyph glyph-name="scedilla" unicode="&#x15f;" horiz-adv-x="412" 
d="M95 118q17 -32 43.5 -49.5t71.5 -17.5q98 0 98 70q0 21 -6.5 35.5t-21 26t-37.5 22t-56 22.5q-36 12 -61 25.5t-41 29.5t-23.5 36t-7.5 47q0 58 42.5 91t112.5 33q58 0 97 -19.5t66 -55.5l-54 -43q-20 24 -47 40t-61 16q-42 0 -62.5 -16.5t-20.5 -40.5q0 -15 5.5 -26.5
t19.5 -21t36.5 -19t57.5 -21.5q66 -23 100 -58t34 -93q0 -34 -13 -60.5t-35.5 -44.5t-53.5 -27.5t-68 -9.5q-71 0 -111 26t-64 66zM113 -174l51 130h82l-72 -130h-61z" />
    <glyph glyph-name="Scaron" unicode="&#x160;" horiz-adv-x="516" 
d="M93 143q29 -42 76 -63t96 -21q26 0 49.5 6.5t41 20t28 35.5t10.5 52q0 28 -13 49.5t-35 38.5t-50 30.5t-58 26.5q-34 15 -67 30.5t-59.5 37.5t-43 51t-16.5 71q0 43 17.5 75.5t47 54t67 32t78.5 10.5q63 0 121 -25t94 -79l-61 -48q-26 36 -66.5 58.5t-88.5 22.5
q-59 0 -91.5 -26.5t-32.5 -70.5q0 -25 11.5 -42.5t32 -32t49.5 -27.5t65 -29q34 -15 67 -32t59 -40t42 -54t16 -74q0 -51 -17.5 -88t-47.5 -61t-69.5 -35t-84.5 -11q-34 0 -67.5 7.5t-64 21.5t-56 34.5t-42.5 46.5zM244 710l-126 144l45 30l105 -112l106 112l44 -30
l-126 -144h-48z" />
    <glyph glyph-name="scaron" unicode="&#x161;" horiz-adv-x="412" 
d="M95 118q17 -32 43.5 -49.5t71.5 -17.5q98 0 98 70q0 21 -6.5 35.5t-21 26t-37.5 22t-56 22.5q-36 12 -61 25.5t-41 29.5t-23.5 36t-7.5 47q0 58 42.5 91t112.5 33q58 0 97 -19.5t66 -55.5l-54 -43q-20 24 -47 40t-61 16q-42 0 -62.5 -16.5t-20.5 -40.5q0 -15 5.5 -26.5
t19.5 -21t36.5 -19t57.5 -21.5q66 -23 100 -58t34 -93q0 -34 -13 -60.5t-35.5 -44.5t-53.5 -27.5t-68 -9.5q-71 0 -111 26t-64 66zM197 544l-126 144l45 30l105 -112l106 112l44 -30l-126 -144h-48z" />
    <glyph glyph-name="Tcommaaccent" unicode="&#x162;" horiz-adv-x="511" 
d="M216 0v598h-207v69h493v-69h-207v-598h-79zM160 -174l51 130h82l-72 -130h-61z" />
    <glyph glyph-name="tcommaaccent" unicode="&#x163;" horiz-adv-x="328" 
d="M177 109q0 -35 13.5 -46.5t34.5 -11.5q19 0 36 8t31 19l30 -52q-23 -17 -45.5 -27t-63.5 -10q-54 0 -83 27.5t-29 84.5v313h-82v63h82v130h77v-130h125v-63h-126v-305zM114 -174l51 130h82l-72 -130h-61z" />
    <glyph glyph-name="Tcaron" unicode="&#x164;" horiz-adv-x="511" 
d="M216 0v598h-207v69h493v-69h-207v-598h-79zM231 710l-126 144l45 30l105 -112l106 112l44 -30l-126 -144h-48z" />
    <glyph glyph-name="tcaron" unicode="&#x165;" horiz-adv-x="328" 
d="M236 511v170h75l-28 -170h-47zM177 109q0 -35 13.5 -46.5t34.5 -11.5q19 0 36 8t31 19l30 -52q-23 -17 -45.5 -27t-63.5 -10q-54 0 -83 27.5t-29 84.5v313h-82v63h82v130h77v-130h125v-63h-126v-305z" />
    <glyph glyph-name="Tbar" unicode="&#x166;" horiz-adv-x="511" 
d="M216 0v295h-159v62h159v241h-207v69h493v-69h-207v-241h163v-62h-163v-295h-79z" />
    <glyph glyph-name="tbar" unicode="&#x167;" horiz-adv-x="328" 
d="M19 232v62h82v120h-82v63h82v130h77v-130h125v-63h-126v-120h126v-62h-126v-123q0 -35 13.5 -46.5t34.5 -11.5q19 0 36 8t31 19l30 -52q-23 -17 -45.5 -27t-63.5 -10q-54 0 -83 27.5t-29 84.5v131h-82z" />
    <glyph glyph-name="Utilde" unicode="&#x168;" horiz-adv-x="647" 
d="M157 238q0 -85 44 -132.5t122 -47.5q79 0 123 46t44 134v429h80v-444q0 -59 -20.5 -103t-55 -73.5t-79.5 -44.5t-94 -15q-52 0 -96.5 15t-77.5 44.5t-51.5 73.5t-18.5 103v444h80v-429zM157 758q14 45 41.5 72t62.5 27q22 0 43 -11.5t41 -23.5q9 -6 23 -14t28 -8
q15 0 30 13t29 46l49 -24q-16 -46 -43 -72t-62 -26q-19 0 -37 8.5t-35 19.5q-11 6 -29 17.5t-34 11.5q-17 0 -30.5 -13.5t-27.5 -45.5z" />
    <glyph glyph-name="utilde" unicode="&#x169;" horiz-adv-x="538" 
d="M143 171q0 -63 29 -91.5t86 -28.5q37 0 73.5 15.5t59.5 37.5v373h78v-477h-71l-5 37q-29 -22 -63 -35t-85 -13q-94 0 -136.5 46t-42.5 140v302h77v-306zM105 592q14 45 41.5 72t62.5 27q22 0 43 -11.5t41 -23.5q9 -6 23 -14t28 -8q15 0 30 13t29 46l49 -24
q-16 -46 -43 -72t-62 -26q-19 0 -37 8.5t-35 19.5q-11 6 -29 17.5t-34 11.5q-17 0 -30.5 -13.5t-27.5 -45.5z" />
    <glyph glyph-name="Umacron" unicode="&#x16a;" horiz-adv-x="647" 
d="M174 773v62h294v-62h-294zM157 238q0 -85 44 -132.5t122 -47.5q79 0 123 46t44 134v429h80v-444q0 -59 -20.5 -103t-55 -73.5t-79.5 -44.5t-94 -15q-52 0 -96.5 15t-77.5 44.5t-51.5 73.5t-18.5 103v444h80v-429z" />
    <glyph glyph-name="umacron" unicode="&#x16b;" horiz-adv-x="538" 
d="M143 171q0 -63 29 -91.5t86 -28.5q37 0 73.5 15.5t59.5 37.5v373h78v-477h-71l-5 37q-29 -22 -63 -35t-85 -13q-94 0 -136.5 46t-42.5 140v302h77v-306zM123 590v62h294v-62h-294z" />
    <glyph glyph-name="Ubreve" unicode="&#x16c;" horiz-adv-x="647" 
d="M157 238q0 -85 44 -132.5t122 -47.5q79 0 123 46t44 134v429h80v-444q0 -59 -20.5 -103t-55 -73.5t-79.5 -44.5t-94 -15q-52 0 -96.5 15t-77.5 44.5t-51.5 73.5t-18.5 103v444h80v-429zM255 848q3 -22 11 -36t18.5 -22.5t23.5 -11.5t26 -3q26 0 49 14.5t31 58.5h60
q-3 -36 -16.5 -60.5t-34 -39.5t-45 -21.5t-48.5 -6.5t-48 6.5t-43.5 21.5t-32.5 39.5t-14 60.5h63z" />
    <glyph glyph-name="ubreve" unicode="&#x16d;" horiz-adv-x="538" 
d="M143 171q0 -63 29 -91.5t86 -28.5q37 0 73.5 15.5t59.5 37.5v373h78v-477h-71l-5 37q-29 -22 -63 -35t-85 -13q-94 0 -136.5 46t-42.5 140v302h77v-306zM199 682q3 -22 11 -36t18.5 -22.5t23.5 -11.5t26 -3q26 0 49 14.5t31 58.5h60q-3 -36 -16.5 -60.5t-34 -39.5
t-45 -21.5t-48.5 -6.5t-48 6.5t-43.5 21.5t-32.5 39.5t-14 60.5h63z" />
    <glyph glyph-name="Uring" unicode="&#x16e;" horiz-adv-x="647" 
d="M157 238q0 -85 44 -132.5t122 -47.5q79 0 123 46t44 134v429h80v-444q0 -59 -20.5 -103t-55 -73.5t-79.5 -44.5t-94 -15q-52 0 -96.5 15t-77.5 44.5t-51.5 73.5t-18.5 103v444h80v-429zM289 708q-17 9 -28.5 23t-17.5 31.5t-6 36.5t6 37t17.5 32t29 22.5t40.5 8.5
t40.5 -8.5t29.5 -22.5t18 -32t6 -37q0 -18 -6 -36t-18 -32t-29.5 -22.5t-40.5 -8.5t-41 8zM292 758q13 -18 38 -18t38 18.5t13 40.5q0 23 -13 41.5t-38 18.5t-38 -18.5t-13 -41.5q0 -22 13 -41z" />
    <glyph glyph-name="uring" unicode="&#x16f;" horiz-adv-x="538" 
d="M143 171q0 -63 29 -91.5t86 -28.5q37 0 73.5 15.5t59.5 37.5v373h78v-477h-71l-5 37q-29 -22 -63 -35t-85 -13q-94 0 -136.5 46t-42.5 140v302h77v-306zM228 542q-17 9 -28.5 23t-17.5 31.5t-6 36.5t6 37t17.5 32t29 22.5t40.5 8.5t40.5 -8.5t29.5 -22.5t18 -32t6 -37
q0 -18 -6 -36t-18 -32t-29.5 -22.5t-40.5 -8.5t-41 8zM231 592q13 -18 38 -18t38 18.5t13 40.5q0 23 -13 41.5t-38 18.5t-38 -18.5t-13 -41.5q0 -22 13 -41z" />
    <glyph glyph-name="Uhungarumlaut" unicode="&#x170;" horiz-adv-x="647" 
d="M157 238q0 -85 44 -132.5t122 -47.5q79 0 123 46t44 134v429h80v-444q0 -59 -20.5 -103t-55 -73.5t-79.5 -44.5t-94 -15q-52 0 -96.5 15t-77.5 44.5t-51.5 73.5t-18.5 103v444h80v-429zM389 710l-36 37l166 139l52 -52zM204 710l-36 37l167 139l51 -52z" />
    <glyph glyph-name="uhungarumlaut" unicode="&#x171;" horiz-adv-x="538" 
d="M143 171q0 -63 29 -91.5t86 -28.5q37 0 73.5 15.5t59.5 37.5v373h78v-477h-71l-5 37q-29 -22 -63 -35t-85 -13q-94 0 -136.5 46t-42.5 140v302h77v-306zM330 544l-36 37l166 139l52 -52zM145 544l-36 37l167 139l51 -52z" />
    <glyph glyph-name="Uogonek" unicode="&#x172;" horiz-adv-x="647" 
d="M454 -161q-12 -8 -29 -13t-38 -5q-38 0 -62 19.5t-24 58.5q0 22 7.5 40.5t18.5 34.5l10 14q-8 -1 -16 -1q-52 0 -96.5 15t-77.5 44.5t-51.5 73.5t-18.5 103v444h80v-429q0 -85 44 -132.5t122 -47.5q79 0 123 46t44 134v429h80v-444q0 -59 -20.5 -103t-55.5 -74
q-25 -21 -55 -35q-29 -19 -51.5 -45.5t-22.5 -57.5q0 -14 7 -23.5t23 -9.5q14 0 23.5 4t17.5 9z" />
    <glyph glyph-name="uogonek" unicode="&#x173;" horiz-adv-x="538" 
d="M481 -161q-12 -8 -29 -13t-38 -5q-38 0 -62 19.5t-24 58.5q0 22 7.5 40.5t19 34.5t25.5 28q8 7 16 13l-3 22q-29 -22 -63 -35t-85 -13q-94 0 -136.5 46t-42.5 140v302h77v-306q0 -63 29 -91.5t86 -28.5q37 0 73.5 15.5t59.5 37.5v373h78v-477h-19q-19 -15 -36 -34
q-22 -27 -22 -58q0 -14 7 -23.5t23 -9.5q14 0 23.5 4t17.5 9z" />
    <glyph glyph-name="Wcircumflex" unicode="&#x174;" horiz-adv-x="751" 
d="M168 0l-168 667h81l123 -471l150 471h42l152 -471l121 471h82l-168 -667h-48l-160 497l-159 -497h-48zM227 740l126 144h48l126 -144l-44 -30l-106 112l-105 -112z" />
    <glyph glyph-name="wcircumflex" unicode="&#x175;" horiz-adv-x="661" 
d="M158 0l-158 477h83l108 -359l117 359h44l118 -359l108 359h83l-158 -477h-60l-113 344l-112 -344h-60zM180 574l126 144h48l126 -144l-44 -30l-106 112l-105 -112z" />
    <glyph glyph-name="Ycircumflex" unicode="&#x176;" horiz-adv-x="543" 
d="M227 0v320l-227 347h91l178 -270l187 270h87l-236 -346v-321h-80zM126 740l126 144h48l126 -144l-44 -30l-106 112l-105 -112z" />
    <glyph glyph-name="ycircumflex" unicode="&#x177;" horiz-adv-x="453" 
d="M25 -126q11 -4 27.5 -7.5t33.5 -3.5q23 0 36 11t27 43l39 95l-188 465h88l141 -367l141 367h83l-244 -603q-18 -44 -50.5 -60t-67.5 -16q-23 0 -48.5 6.5t-39.5 12.5zM76 574l126 144h48l126 -144l-44 -30l-106 112l-105 -112z" />
    <glyph glyph-name="Ydieresis" unicode="&#x178;" horiz-adv-x="543" 
d="M227 0v320l-227 347h91l178 -270l187 270h87l-236 -346v-321h-80zM361 756q-20 0 -34.5 16.5t-14.5 39.5t14.5 39t34.5 16q21 0 35.5 -16t14.5 -39t-14.5 -39.5t-35.5 -16.5zM189 756q-21 0 -35.5 16.5t-14.5 39.5t14.5 39t35.5 16q20 0 34.5 -16t14.5 -39t-14.5 -39.5
t-34.5 -16.5z" />
    <glyph glyph-name="Zacute" unicode="&#x179;" horiz-adv-x="535" 
d="M38 0v74l376 524h-359v69h432v-86l-366 -512h381v-69h-464zM197 710l-37 37l167 139l51 -52z" />
    <glyph glyph-name="zacute" unicode="&#x17a;" horiz-adv-x="452" 
d="M40 0v75l284 339h-273v63h352v-79l-285 -335h292v-63h-370zM183 544l-37 37l167 139l51 -52z" />
    <glyph glyph-name="Zdotaccent" unicode="&#x17b;" horiz-adv-x="535" 
d="M38 0v74l376 524h-359v69h432v-86l-366 -512h381v-69h-464zM268 751q-23 0 -38.5 17.5t-15.5 43.5q0 25 15.5 42.5t38.5 17.5t38.5 -17.5t15.5 -42.5q0 -26 -15.5 -43.5t-38.5 -17.5z" />
    <glyph glyph-name="zdotaccent" unicode="&#x17c;" horiz-adv-x="452" 
d="M40 0v75l284 339h-273v63h352v-79l-285 -335h292v-63h-370zM230 585q-23 0 -38.5 17.5t-15.5 43.5q0 25 15.5 42.5t38.5 17.5t38.5 -17.5t15.5 -42.5q0 -26 -15.5 -43.5t-38.5 -17.5z" />
    <glyph glyph-name="Zcaron" unicode="&#x17d;" horiz-adv-x="535" 
d="M38 0v74l376 524h-359v69h432v-86l-366 -512h381v-69h-464zM248 710l-126 144l45 30l105 -112l106 112l44 -30l-126 -144h-48z" />
    <glyph glyph-name="zcaron" unicode="&#x17e;" horiz-adv-x="452" 
d="M40 0v75l284 339h-273v63h352v-79l-285 -335h292v-63h-370zM209 544l-126 144l45 30l105 -112l106 112l44 -30l-126 -144h-48z" />
    <glyph glyph-name="longs" unicode="&#x17f;" horiz-adv-x="293" 
d="M90 0v512q0 46 10.5 78t30 52t45.5 29t58 9q38 0 64.5 -7.5t46.5 -18.5l-23 -59q-17 8 -37.5 14.5t-46.5 6.5q-17 0 -30 -4t-22 -15.5t-13.5 -32t-4.5 -53.5v-511h-78z" />
    <glyph glyph-name="florin" unicode="&#x192;" horiz-adv-x="540" 
d="M-42 -69q54 2 88.5 18.5t56 47.5t34.5 75.5t25 103.5l42 206h-107v69h122q13 70 37.5 113.5t57 67.5t71 32.5t79.5 8.5v-69q-33 0 -59 -6t-46 -22.5t-35.5 -46.5t-27.5 -78h168v-69h-181l-47 -219q-7 -30 -15 -64t-20 -66t-29 -61.5t-41 -50.5q-30 -27 -71.5 -41.5
t-101.5 -16.5v68z" />
    <glyph glyph-name="Scommaaccent" unicode="&#x218;" horiz-adv-x="516" 
d="M93 143q29 -42 76 -63t96 -21q26 0 49.5 6.5t41 20t28 35.5t10.5 52q0 28 -13 49.5t-35 38.5t-50 30.5t-58 26.5q-34 15 -67 30.5t-59.5 37.5t-43 51t-16.5 71q0 43 17.5 75.5t47 54t67 32t78.5 10.5q63 0 121 -25t94 -79l-61 -48q-26 36 -66.5 58.5t-88.5 22.5
q-59 0 -91.5 -26.5t-32.5 -70.5q0 -25 11.5 -42.5t32 -32t49.5 -27.5t65 -29q34 -15 67 -32t59 -40t42 -54t16 -74q0 -51 -17.5 -88t-47.5 -61t-69.5 -35t-84.5 -11q-34 0 -67.5 7.5t-64 21.5t-56 34.5t-42.5 46.5zM176 -174l51 130h82l-72 -130h-61z" />
    <glyph glyph-name="scommaaccent" unicode="&#x219;" horiz-adv-x="412" 
d="M95 118q17 -32 43.5 -49.5t71.5 -17.5q98 0 98 70q0 21 -6.5 35.5t-21 26t-37.5 22t-56 22.5q-36 12 -61 25.5t-41 29.5t-23.5 36t-7.5 47q0 58 42.5 91t112.5 33q58 0 97 -19.5t66 -55.5l-54 -43q-20 24 -47 40t-61 16q-42 0 -62.5 -16.5t-20.5 -40.5q0 -15 5.5 -26.5
t19.5 -21t36.5 -19t57.5 -21.5q66 -23 100 -58t34 -93q0 -34 -13 -60.5t-35.5 -44.5t-53.5 -27.5t-68 -9.5q-71 0 -111 26t-64 66zM123 -174l51 130h82l-72 -130h-61z" />
    <glyph glyph-name="uni021A" unicode="&#x21a;" horiz-adv-x="511" 
d="M216 0v598h-207v69h493v-69h-207v-598h-79zM160 -174l51 130h82l-72 -130h-61z" />
    <glyph glyph-name="uni021B" unicode="&#x21b;" horiz-adv-x="328" 
d="M177 109q0 -35 13.5 -46.5t34.5 -11.5q19 0 36 8t31 19l30 -52q-23 -17 -45.5 -27t-63.5 -10q-54 0 -83 27.5t-29 84.5v313h-82v63h82v130h77v-130h125v-63h-126v-305zM117 -174l51 130h82l-72 -130h-61z" />
    <glyph glyph-name="dotlessj" unicode="&#x237;" horiz-adv-x="214" 
d="M-4 -142q18 13 31.5 26.5t21.5 29.5t12 36.5t4 47.5v479h78v-479q0 -77 -29 -121.5t-80 -73.5z" />
    <glyph glyph-name="apostrophe" unicode="&#x2bc;" horiz-adv-x="192" 
d="M33 519q16 6 35 18.5t27 26.5q-8 5 -18.5 18t-10.5 37q0 23 11.5 39t34.5 16t35 -16t12 -41q0 -23 -10.5 -43t-27 -36t-37 -28t-41.5 -19z" />
    <glyph glyph-name="circumflex" unicode="&#x2c6;" horiz-adv-x="442" 
d="M71 574l126 144h48l126 -144l-44 -30l-106 112l-105 -112z" />
    <glyph glyph-name="caron" unicode="&#x2c7;" horiz-adv-x="442" 
d="M197 544l-126 144l45 30l105 -112l106 112l44 -30l-126 -144h-48z" />
    <glyph glyph-name="uni02C9" unicode="&#x2c9;" horiz-adv-x="442" 
d="M74 590v62h294v-62h-294z" />
    <glyph glyph-name="breve" unicode="&#x2d8;" horiz-adv-x="442" 
d="M143 682q3 -22 11 -36t18.5 -22.5t23.5 -11.5t26 -3q26 0 49 14.5t31 58.5h60q-3 -36 -16.5 -60.5t-34 -39.5t-45 -21.5t-48.5 -6.5t-48 6.5t-43.5 21.5t-32.5 39.5t-14 60.5h63z" />
    <glyph glyph-name="dotaccent" unicode="&#x2d9;" horiz-adv-x="442" 
d="M221 585q-23 0 -38.5 17.5t-15.5 43.5q0 25 15.5 42.5t38.5 17.5t38.5 -17.5t15.5 -42.5q0 -26 -15.5 -43.5t-38.5 -17.5z" />
    <glyph glyph-name="ring" unicode="&#x2da;" horiz-adv-x="442" 
d="M180 542q-17 9 -28.5 23t-17.5 31.5t-6 36.5t6 37t17.5 32t29 22.5t40.5 8.5t40.5 -8.5t29.5 -22.5t18 -32t6 -37q0 -18 -6 -36t-18 -32t-29.5 -22.5t-40.5 -8.5t-41 8zM183 592q13 -18 38 -18t38 18.5t13 40.5q0 23 -13 41.5t-38 18.5t-38 -18.5t-13 -41.5q0 -22 13 -41
z" />
    <glyph glyph-name="ogonek" unicode="&#x2db;" horiz-adv-x="442" 
d="M270 -161q-12 -8 -29 -13t-38 -5q-38 0 -62 19.5t-24 58.5q0 22 7.5 40.5t19 34.5t25.5 28t27 20l59 -11q-29 -19 -51.5 -45.5t-22.5 -57.5q0 -14 7 -23.5t23 -9.5q14 0 23.5 4t17.5 9z" />
    <glyph glyph-name="tilde" unicode="&#x2dc;" horiz-adv-x="442" 
d="M48 592q14 45 41.5 72t62.5 27q22 0 43 -11.5t41 -23.5q9 -6 23 -14t28 -8q15 0 30 13t29 46l49 -24q-16 -46 -43 -72t-62 -26q-19 0 -37 8.5t-35 19.5q-11 6 -29 17.5t-34 11.5q-17 0 -30.5 -13.5t-27.5 -45.5z" />
    <glyph glyph-name="hungarumlaut" unicode="&#x2dd;" horiz-adv-x="442" 
d="M241 544l-36 37l166 139l52 -52zM56 544l-36 37l167 139l51 -52z" />
    <glyph glyph-name="tonos" unicode="&#x384;" horiz-adv-x="442" 
d="M150 556l93 193l68 -27l-114 -187z" />
    <glyph glyph-name="dieresistonos" unicode="&#x385;" horiz-adv-x="442" 
d="M369 590q-20 0 -34.5 16.5t-14.5 39.5t14.5 39t34.5 16q21 0 35.5 -16t14.5 -39t-14.5 -39.5t-35.5 -16.5zM92 590q-21 0 -35.5 16.5t-14.5 39.5t14.5 39t35.5 16q20 0 34.5 -16t14.5 -39t-14.5 -39.5t-34.5 -16.5zM164 582l93 193l68 -27l-114 -187z" />
    <glyph glyph-name="Alphatonos" unicode="&#x386;" horiz-adv-x="568" 
d="M51 464l59 204l71 -18l-80 -201zM0 0l257 667h49l262 -667h-87l-79 206h-242l-76 -206h-84zM186 277h190l-97 255z" />
    <glyph glyph-name="Epsilontonos" unicode="&#x388;" horiz-adv-x="514" 
d="M-74 464l59 204l71 -18l-80 -201zM81 0v667h389v-69h-309v-214h221v-69h-222v-246h334v-69h-413z" />
    <glyph glyph-name="Etatonos" unicode="&#x389;" horiz-adv-x="655" 
d="M-76 464l59 204l71 -18l-80 -201zM81 0v667h80v-289h334v289h79v-667h-79v307h-334v-307h-80z" />
    <glyph glyph-name="Iotatonos" unicode="&#x38a;" horiz-adv-x="242" 
d="M-71 464l59 204l71 -18l-80 -201zM81 0v667h80v-667h-80z" />
    <glyph glyph-name="Omicrontonos" unicode="&#x38c;" horiz-adv-x="661" 
d="M-54 464l59 204l71 -18l-80 -201zM204 17q-53 30 -87.5 78.5t-51 111t-16.5 127.5t16.5 127t51 111t87.5 78.5t127 29.5q73 0 126 -29.5t87.5 -78.5t51 -111t16.5 -127t-16.5 -127.5t-51 -111t-87.5 -78.5t-126 -30q-74 0 -127 30zM181 144q25 -39 62 -62.5t88 -23.5
t88 23.5t61 62.5t36 88.5t12 101.5q0 51 -11.5 100.5t-35.5 88.5t-61.5 62.5t-88.5 23.5t-88.5 -23.5t-62 -62.5t-36 -88.5t-11.5 -100.5q0 -52 12 -101.5t36 -88.5z" />
    <glyph glyph-name="Upsilontonos" unicode="&#x38e;" horiz-adv-x="544" 
d="M-153 464l59 204l71 -18l-80 -201zM230 0v184q0 11 -0.5 30.5t-4.5 43.5q-6 43 -28 94t-54 101t-72.5 94t-82.5 73l49 56q31 -20 68 -55.5t71.5 -80t61.5 -95.5t37 -103q11 45 36.5 95.5t58.5 97t70 84.5t71 58l45 -52q-25 -15 -51.5 -42t-52.5 -61t-49.5 -72t-42 -75.5
t-30.5 -71.5t-15 -59q-4 -33 -4.5 -53t-0.5 -37v-154h-80z" />
    <glyph glyph-name="Omegatonos" unicode="&#x38f;" horiz-adv-x="670" 
d="M34 0v69h137q-24 20 -48.5 46.5t-44.5 61t-32.5 77.5t-12.5 96q0 69 20.5 129t59 104.5t93.5 70.5t123 26q67 0 121 -24t91.5 -66t57.5 -100t20 -127q0 -54 -12 -99t-31.5 -81.5t-44.5 -64.5t-50 -49h139v-69h-231v69q29 19 55.5 48t47 65.5t32.5 80t12 91.5
q0 58 -14 105t-40.5 80.5t-65 51.5t-87.5 18t-88 -19t-66.5 -53.5t-42.5 -82.5t-15 -106q0 -48 13.5 -90t35 -77.5t48.5 -63.5t54 -48v-69h-234zM-70 464l59 204l71 -18l-80 -201z" />
    <glyph glyph-name="iotadieresistonos" unicode="&#x390;" horiz-adv-x="264" 
d="M259 5q-11 -5 -30.5 -10.5t-42.5 -5.5q-53 0 -82 28t-29 91v369h75v-359q0 -34 9.5 -50.5t36.5 -16.5q17 0 29 3.5t22 6.5zM272 590q-20 0 -34.5 16.5t-14.5 39.5t14.5 39t34.5 16q21 0 35.5 -16t14.5 -39t-14.5 -39.5t-35.5 -16.5zM-5 590q-21 0 -35.5 16.5t-14.5 39.5
t14.5 39t35.5 16q20 0 34.5 -16t14.5 -39t-14.5 -39.5t-34.5 -16.5zM67 582l93 193l68 -27l-114 -187z" />
    <glyph glyph-name="Alpha" unicode="&#x391;" horiz-adv-x="568" 
d="M0 0l257 667h49l262 -667h-87l-79 206h-242l-76 -206h-84zM186 277h190l-97 255z" />
    <glyph glyph-name="Beta" unicode="&#x392;" horiz-adv-x="537" 
d="M81 0v667h190q100 0 151 -46t51 -124q0 -64 -36.5 -98.5t-93.5 -44.5q28 -3 57.5 -13t53 -29.5t38.5 -50t15 -75.5q0 -43 -14.5 -77.5t-40 -58.5t-61.5 -37t-78 -13h-232zM161 384h103q60 0 92.5 32t32.5 84q0 98 -115 98h-113v-214zM161 69h148q51 0 82 29.5t31 89.5
q0 127 -155 127h-106v-246z" />
    <glyph glyph-name="Gamma" unicode="&#x393;" horiz-adv-x="480" 
d="M81 0v667h389v-73h-309v-594h-80z" />
    <glyph glyph-name="uni0394" unicode="&#x394;" horiz-adv-x="608" 
d="M10 0l260 667h58l270 -667h-588zM118 65h368l-189 482z" />
    <glyph glyph-name="Epsilon" unicode="&#x395;" horiz-adv-x="514" 
d="M81 0v667h389v-69h-309v-214h221v-69h-222v-246h334v-69h-413z" />
    <glyph glyph-name="Zeta" unicode="&#x396;" horiz-adv-x="535" 
d="M38 0v74l376 524h-359v69h432v-86l-366 -512h381v-69h-464z" />
    <glyph glyph-name="Eta" unicode="&#x397;" horiz-adv-x="655" 
d="M81 0v667h80v-289h334v289h79v-667h-79v307h-334v-307h-80z" />
    <glyph glyph-name="Theta" unicode="&#x398;" horiz-adv-x="661" 
d="M194 300v69h271v-69h-271zM204 17q-53 30 -87.5 78.5t-51 111t-16.5 127.5t16.5 127t51 111t87.5 78.5t127 29.5q73 0 126 -29.5t87.5 -78.5t51 -111t16.5 -127t-16.5 -127.5t-51 -111t-87.5 -78.5t-126 -30q-74 0 -127 30zM181 144q25 -39 62 -62.5t88 -23.5t88 23.5
t61 62.5t36 88.5t12 101.5q0 51 -11.5 100.5t-35.5 88.5t-61.5 62.5t-88.5 23.5t-88.5 -23.5t-62 -62.5t-36 -88.5t-11.5 -100.5q0 -52 12 -101.5t36 -88.5z" />
    <glyph glyph-name="Iota" unicode="&#x399;" horiz-adv-x="242" 
d="M81 0v667h80v-667h-80z" />
    <glyph glyph-name="Kappa" unicode="&#x39a;" horiz-adv-x="562" 
d="M81 0v667h80v-293l287 293h95l-257 -262l271 -405h-96l-231 347l-69 -71v-276h-80z" />
    <glyph glyph-name="Lambda" unicode="&#x39b;" horiz-adv-x="570" 
d="M10 0l247 667h49l254 -667h-87l-194 520l-183 -520h-86z" />
    <glyph glyph-name="Mu" unicode="&#x39c;" horiz-adv-x="743" 
d="M81 0v667h94l194 -515l200 515h93v-667h-77v509l-207 -520h-16l-203 519v-508h-78z" />
    <glyph glyph-name="Nu" unicode="&#x39d;" horiz-adv-x="658" 
d="M81 0v667h81l336 -497v497h79v-667h-59l-358 529v-529h-79z" />
    <glyph glyph-name="Xi" unicode="&#x39e;" horiz-adv-x="573" 
d="M65 0v70h443v-70h-443zM71 597v70h432v-70h-432zM120 314v69h333v-69h-333z" />
    <glyph glyph-name="Omicron" unicode="&#x39f;" horiz-adv-x="661" 
d="M204 17q-53 30 -87.5 78.5t-51 111t-16.5 127.5t16.5 127t51 111t87.5 78.5t127 29.5q73 0 126 -29.5t87.5 -78.5t51 -111t16.5 -127t-16.5 -127.5t-51 -111t-87.5 -78.5t-126 -30q-74 0 -127 30zM181 144q25 -39 62 -62.5t88 -23.5t88 23.5t61 62.5t36 88.5t12 101.5
q0 51 -11.5 100.5t-35.5 88.5t-61.5 62.5t-88.5 23.5t-88.5 -23.5t-62 -62.5t-36 -88.5t-11.5 -100.5q0 -52 12 -101.5t36 -88.5z" />
    <glyph glyph-name="Pi" unicode="&#x3a0;" horiz-adv-x="660" 
d="M86 0v667h489v-667h-80v595h-328v-595h-81z" />
    <glyph glyph-name="Rho" unicode="&#x3a1;" horiz-adv-x="544" 
d="M81 0v667h208q115 0 170.5 -51t55.5 -151q0 -97 -58.5 -147t-170.5 -50h-125v-268h-80zM161 338h131q61 0 99 30t38 99t-36 100t-102 31h-130v-260z" />
    <glyph glyph-name="Sigma" unicode="&#x3a3;" horiz-adv-x="529" 
d="M45 0v70l256 262l-266 264v71h456v-69h-356l267 -265l-260 -264h367v-69h-464z" />
    <glyph glyph-name="Tau" unicode="&#x3a4;" horiz-adv-x="511" 
d="M216 0v598h-207v69h493v-69h-207v-598h-79z" />
    <glyph glyph-name="Upsilon" unicode="&#x3a5;" horiz-adv-x="548" 
d="M232 0v184q0 11 -0.5 30.5t-4.5 43.5q-6 43 -28 94t-54 101t-72.5 94t-82.5 73l49 56q31 -20 68 -55.5t71.5 -80t61.5 -95.5t37 -103q11 45 36.5 95.5t58.5 97t70 84.5t71 58l45 -52q-25 -15 -51.5 -42t-52.5 -61t-49.5 -72t-42 -75.5t-30.5 -71.5t-15 -59
q-4 -33 -4.5 -53t-0.5 -37v-154h-80z" />
    <glyph glyph-name="Phi" unicode="&#x3a6;" horiz-adv-x="710" 
d="M315 -11v94q-133 5 -202.5 70.5t-69.5 180.5t71 179.5t201 69.5v97h80v-97q134 -5 203 -69.5t69 -179.5q0 -113 -69 -179.5t-203 -71.5v-94h-80zM395 150q87 1 139.5 46t52.5 138q0 45 -14.5 79t-40 57t-60.5 35t-77 12v-367zM315 517q-88 -2 -139.5 -47.5t-51.5 -135.5
q0 -92 53 -137.5t138 -46.5v367z" />
    <glyph glyph-name="Chi" unicode="&#x3a7;" horiz-adv-x="516" 
d="M0 0l207 342l-189 325h97l143 -262l146 262h92l-190 -319l210 -348h-100l-160 286l-164 -286h-92z" />
    <glyph glyph-name="Psi" unicode="&#x3a8;" horiz-adv-x="752" 
d="M339 0v202q-136 5 -200 66t-64 191v208h80v-197q0 -56 13 -93.5t37 -61t58 -33.5t76 -10v395h80v-395q83 1 133 46t50 135v214h80v-214q0 -115 -64.5 -179.5t-198.5 -71.5v-202h-80z" />
    <glyph glyph-name="Omega" unicode="&#x3a9;" horiz-adv-x="692" 
d="M51 0v69h137q-24 20 -48.5 46.5t-44.5 61t-32.5 77.5t-12.5 96q0 69 20.5 129t59 104.5t93.5 70.5t123 26q67 0 121 -24t91.5 -66t57.5 -100t20 -127q0 -54 -12 -99t-31.5 -81.5t-44.5 -64.5t-50 -49h139v-69h-231v69q29 19 55.5 48t47 65.5t32.5 80t12 91.5
q0 58 -14 105t-40.5 80.5t-65 51.5t-87.5 18t-88 -19t-66.5 -53.5t-42.5 -82.5t-15 -106q0 -48 13.5 -90t35 -77.5t48.5 -63.5t54 -48v-69h-234z" />
    <glyph glyph-name="Iotadieresis" unicode="&#x3aa;" horiz-adv-x="242" 
d="M81 0v667h80v-667h-80zM212 756q-20 0 -34.5 16.5t-14.5 39.5t14.5 39t34.5 16q21 0 35.5 -16t14.5 -39t-14.5 -39.5t-35.5 -16.5zM40 756q-21 0 -35.5 16.5t-14.5 39.5t14.5 39t35.5 16q20 0 34.5 -16t14.5 -39t-14.5 -39.5t-34.5 -16.5z" />
    <glyph glyph-name="Upsilondieresis" unicode="&#x3ab;" horiz-adv-x="548" 
d="M232 0v184q0 11 -0.5 30.5t-4.5 43.5q-6 43 -28 94t-54 101t-72.5 94t-82.5 73l49 56q31 -20 68 -55.5t71.5 -80t61.5 -95.5t37 -103q11 45 36.5 95.5t58.5 97t70 84.5t71 58l45 -52q-25 -15 -51.5 -42t-52.5 -61t-49.5 -72t-42 -75.5t-30.5 -71.5t-15 -59
q-4 -33 -4.5 -53t-0.5 -37v-154h-80zM367 756q-20 0 -34.5 16.5t-14.5 39.5t14.5 39t34.5 16q21 0 35.5 -16t14.5 -39t-14.5 -39.5t-35.5 -16.5zM195 756q-21 0 -35.5 16.5t-14.5 39.5t14.5 39t35.5 16q20 0 34.5 -16t14.5 -39t-14.5 -39.5t-34.5 -16.5z" />
    <glyph glyph-name="alphatonos" unicode="&#x3ac;" horiz-adv-x="573" 
d="M558 -6q-14 -3 -24.5 -4t-18.5 -1q-51 0 -79 23.5t-36 63.5q-9 -15 -19 -25q-38 -38 -70.5 -50t-69.5 -12q-40 0 -75 15t-61.5 45t-41.5 74.5t-15 103.5q0 51 13 98.5t39 84t65.5 58t92.5 21.5q31 0 56 -9t43.5 -23t31.5 -31.5t19 -35.5q2 23 11 51t20 50l76 -16
q-26 -58 -41.5 -123t-15.5 -148q0 -26 1 -48t6 -45q7 -34 24 -45t39 -11q5 0 11 0.5t13 1.5zM163 97q36 -44 89 -44q20 0 40 5t37.5 18t30.5 34t20 54q5 24 7 42.5t2 36.5q0 28 -4.5 59.5t-18.5 58t-40 44t-69 17.5q-26 0 -49.5 -12.5t-41.5 -37t-28.5 -61t-10.5 -84.5
q0 -86 36 -130zM239 556l93 193l68 -27l-114 -187z" />
    <glyph glyph-name="epsilontonos" unicode="&#x3ad;" horiz-adv-x="486" 
d="M439 30q-15 -9 -37 -17t-46 -13t-49 -8t-47 -3q-92 0 -146 34.5t-54 105.5q0 46 28.5 77t76.5 44q-42 14 -66 42.5t-24 66.5q0 61 47.5 95.5t128.5 34.5q63 0 106.5 -16t72.5 -33l-25 -59q-39 23 -76 34t-73 11q-48 0 -75.5 -16.5t-27.5 -54.5q0 -28 21 -48.5t64 -25.5
q11 -2 32 -2h43h60v-61h-60q-26 0 -48 -0.5t-38 -2.5q-39 -3 -64 -24t-25 -54q0 -42 32.5 -64t99.5 -22q43 0 83 11t73 26zM211 556l93 193l68 -27l-114 -187z" />
    <glyph glyph-name="etatonos" unicode="&#x3ae;" horiz-adv-x="556" 
d="M85 0v375q0 23 -7 34.5t-25 11.5q-8 0 -14.5 -1.5t-11.5 -3.5l-17 58q9 4 24 7.5t32 3.5q30 0 52 -12t35 -49q30 34 70 49.5t89 15.5q83 0 127.5 -36.5t49.5 -95.5q2 -17 2 -30v-33v-483h-77v485q0 14 -1 29t-3 26q-17 73 -112 73q-44 0 -80.5 -19t-48.5 -48
q-5 -13 -6 -31.5t-1 -29.5v-296h-77zM249 556l93 193l68 -27l-114 -187z" />
    <glyph glyph-name="iotatonos" unicode="&#x3af;" horiz-adv-x="264" 
d="M259 5q-11 -5 -30.5 -10.5t-42.5 -5.5q-53 0 -82 28t-29 91v369h75v-359q0 -34 9.5 -50.5t36.5 -16.5q17 0 29 3.5t22 6.5zM56 556l93 193l68 -27l-114 -187z" />
    <glyph glyph-name="upsilondieresistonos" unicode="&#x3b0;" horiz-adv-x="548" 
d="M166 189q0 -61 25.5 -96.5t82.5 -35.5q55 0 83.5 30t39.5 89q5 23 5.5 50t0.5 57q0 26 -1.5 49t-4 45.5t-6.5 46t-8 50.5l76 10q9 -51 14 -98.5t5 -101.5q0 -61 -6 -109q-11 -85 -61 -135.5t-141 -50.5q-181 0 -181 202v149q0 15 -1 29t-5 24.5t-12.5 16.5t-23.5 6
q-5 0 -10 -0.5t-10 -1.5l-17 61q9 4 22 7t29 3q47 0 69 -23.5t30 -57.5q4 -17 5 -34.5t1 -35.5v-145zM410 590q-20 0 -34.5 16.5t-14.5 39.5t14.5 39t34.5 16q21 0 35.5 -16t14.5 -39t-14.5 -39.5t-35.5 -16.5zM133 590q-21 0 -35.5 16.5t-14.5 39.5t14.5 39t35.5 16
q20 0 34.5 -16t14.5 -39t-14.5 -39.5t-34.5 -16.5zM205 582l93 193l68 -27l-114 -187z" />
    <glyph glyph-name="alpha" unicode="&#x3b1;" horiz-adv-x="573" 
d="M558 -6q-14 -3 -24.5 -4t-18.5 -1q-51 0 -79 23.5t-36 63.5q-9 -15 -19 -25q-38 -38 -70.5 -50t-69.5 -12q-40 0 -75 15t-61.5 45t-41.5 74.5t-15 103.5q0 51 13 98.5t39 84t65.5 58t92.5 21.5q31 0 56 -9t43.5 -23t31.5 -31.5t19 -35.5q2 23 11 51t20 50l76 -16
q-26 -58 -41.5 -123t-15.5 -148q0 -26 1 -48t6 -45q7 -34 24 -45t39 -11q5 0 11 0.5t13 1.5zM163 97q36 -44 89 -44q20 0 40 5t37.5 18t30.5 34t20 54q5 24 7 42.5t2 36.5q0 28 -4.5 59.5t-18.5 58t-40 44t-69 17.5q-26 0 -49.5 -12.5t-41.5 -37t-28.5 -61t-10.5 -84.5
q0 -86 36 -130z" />
    <glyph glyph-name="beta" unicode="&#x3b2;" horiz-adv-x="579" 
d="M80 -190v646q0 14 1.5 29t3.5 30q4 26 17.5 54.5t37.5 52t60 39t87 15.5q86 0 136.5 -43t50.5 -116q0 -32 -11 -57t-28 -44t-37.5 -31t-38.5 -18q32 -3 63.5 -15.5t56 -35t40 -55.5t15.5 -78q0 -43 -15.5 -78.5t-43 -61t-65.5 -40t-83 -14.5q-59 0 -102 17t-71 40v-236
h-74zM157 118q12 -11 29.5 -23t39 -22t47 -16t53.5 -6q56 0 93.5 32t37.5 102q0 71 -53 109t-147 38v62q27 0 52.5 5.5t46 18.5t33 35t12.5 55q0 51 -31.5 78.5t-82.5 27.5q-33 0 -56 -9.5t-37.5 -26t-22.5 -37.5t-11 -43q-2 -12 -2.5 -26t-0.5 -25v-329z" />
    <glyph glyph-name="gamma" unicode="&#x3b3;" horiz-adv-x="502" 
d="M200 -189q0 45 -1 93t-7 93q-8 60 -23 118t-32.5 109.5t-35 93.5t-30.5 68q-11 20 -22 26t-24 6q-14 0 -29 -5l-19 59q11 5 29 8.5t33 3.5q29 0 53 -12.5t44 -44.5q10 -17 25.5 -54.5t31.5 -87.5t30.5 -108t22.5 -116q18 71 39 133t42.5 114.5t42.5 96t38 78.5l63 -24
q-24 -48 -50.5 -109t-51.5 -122.5t-44.5 -116t-28.5 -88.5q-8 -32 -13.5 -68.5t-5.5 -88.5v-55h-77z" />
    <glyph glyph-name="delta" unicode="&#x3b4;" horiz-adv-x="543" 
d="M145 667h334v-62h-260q45 -32 94.5 -71.5t90.5 -80.5q50 -50 72 -101.5t22 -118.5q0 -42 -13 -85.5t-41 -79t-71 -57.5t-103 -22q-54 0 -95 20t-69 53.5t-42 77.5t-14 91q0 46 14 88.5t42.5 76t70.5 54.5t99 26q-35 29 -75.5 59.5t-78.5 56.5zM364 392q-17 20 -36 38
q-106 -5 -152.5 -57.5t-46.5 -137.5q0 -38 9.5 -71t28 -57t45.5 -37.5t62 -13.5q37 0 65 14t46.5 38t27.5 56t9 69q0 35 -7.5 63.5t-20.5 52.5t-30 43z" />
    <glyph glyph-name="epsilon" unicode="&#x3b5;" horiz-adv-x="486" 
d="M439 30q-15 -9 -37 -17t-46 -13t-49 -8t-47 -3q-92 0 -146 34.5t-54 105.5q0 46 28.5 77t76.5 44q-42 14 -66 42.5t-24 66.5q0 61 47.5 95.5t128.5 34.5q63 0 106.5 -16t72.5 -33l-25 -59q-39 23 -76 34t-73 11q-48 0 -75.5 -16.5t-27.5 -54.5q0 -28 21 -48.5t64 -25.5
q11 -2 32 -2h43h60v-61h-60q-26 0 -48 -0.5t-38 -2.5q-39 -3 -64 -24t-25 -54q0 -42 32.5 -64t99.5 -22q43 0 83 11t73 26z" />
    <glyph glyph-name="zeta" unicode="&#x3b6;" horiz-adv-x="447" 
d="M316 -159q12 32 24 72.5t16 74.5h-27q-64 0 -115.5 9.5t-88 32.5t-56 60.5t-19.5 93.5q0 54 17 106.5t46.5 102t68 93.5t81.5 81q14 12 28.5 23t26.5 18q-36 -3 -70 -3q-20 0 -43.5 0.5t-45.5 2t-41 3.5t-30 5l13 59q42 -5 90 -8t99 -3q33 0 66 1.5t73 5.5v-53l-34 -22
t-33 -23q-49 -37 -91.5 -82.5t-74.5 -95.5t-50.5 -102.5t-18.5 -101.5q0 -45 16.5 -72t49.5 -42t83 -20.5t118 -5.5q20 0 29 -9t9 -32q0 -21 -6 -46.5t-14.5 -51t-18 -49t-16.5 -39.5z" />
    <glyph glyph-name="eta" unicode="&#x3b7;" horiz-adv-x="556" 
d="M85 0v375q0 23 -7 34.5t-25 11.5q-8 0 -14.5 -1.5t-11.5 -3.5l-17 58q9 4 24 7.5t32 3.5q30 0 52 -12t35 -49q30 34 70 49.5t89 15.5q83 0 127.5 -36.5t49.5 -95.5q2 -17 2 -30v-33v-483h-77v485q0 14 -1 29t-3 26q-17 73 -112 73q-44 0 -80.5 -19t-48.5 -48
q-5 -13 -6 -31.5t-1 -29.5v-296h-77z" />
    <glyph glyph-name="theta" unicode="&#x3b8;" horiz-adv-x="530" 
d="M158 18q-42 30 -66 78t-33 109t-9 125q0 61 10.5 123t35.5 111.5t67.5 80.5t107.5 31q64 0 105 -29.5t64 -77.5t31.5 -109t8.5 -125q0 -66 -9.5 -128t-33.5 -110.5t-66 -78t-106 -29.5q-65 0 -107 29zM127 303q0 -47 7 -92t23 -80t43 -56.5t67 -21.5q42 0 69 21.5
t42.5 56.5t21.5 80t6 92h-279zM406 363q-1 46 -7.5 91t-21.5 80.5t-41.5 57t-66.5 21.5q-41 0 -68 -21.5t-43 -56.5t-23 -80t-8 -92h279z" />
    <glyph glyph-name="iota" unicode="&#x3b9;" horiz-adv-x="264" 
d="M259 5q-11 -5 -30.5 -10.5t-42.5 -5.5q-53 0 -82 28t-29 91v369h75v-359q0 -34 9.5 -50.5t36.5 -16.5q17 0 29 3.5t22 6.5z" />
    <glyph glyph-name="kappa" unicode="&#x3ba;" horiz-adv-x="547" 
d="M75 0v477h76v-241q21 24 46 53.5t50 58t47 52.5t37 38q28 26 51.5 34.5t46.5 8.5q17 0 35.5 -5t30.5 -13l-22 -60q-10 5 -21.5 9t-22.5 4q-18 0 -31.5 -7.5t-30.5 -24.5q-19 -19 -36.5 -38.5t-35.5 -41.5l215 -304h-90l-176 246l-93 -103v-143h-76z" />
    <glyph glyph-name="lambda" unicode="&#x3bb;" horiz-adv-x="512" 
d="M25 0l189 467l-26 69q-11 29 -23.5 42.5t-38.5 13.5q-14 0 -31.5 -4.5t-30.5 -9.5l-21 56q16 8 44 16t51 8q46 0 74 -23t45 -69l160 -452q9 -25 23 -43.5t42 -18.5q15 0 28 4l12 -56q-11 -5 -26.5 -8t-25.5 -3q-34 0 -56.5 10.5t-38 30t-26.5 45.5t-21 58l-80 240
l-143 -373h-80z" />
    <glyph glyph-name="uni03BC" unicode="&#x3bc;" horiz-adv-x="574" 
d="M80 -189v666h78v-304q0 -66 30 -94t87 -28q46 0 77 18.5t44 44.5q7 14 8 33t1 36v294h78v-359q0 -34 6.5 -50t30.5 -16q15 0 27 4l12 -56q-11 -5 -26.5 -8t-25.5 -3q-34 0 -56.5 12.5t-34.5 46.5q-30 -31 -63 -45t-84 -14q-37 0 -66.5 11.5t-48.5 34.5v-224h-74z" />
    <glyph glyph-name="nu" unicode="&#x3bd;" horiz-adv-x="509" 
d="M201 0q-15 58 -32.5 115.5t-34.5 108.5t-33 92.5t-28 68.5q-9 20 -19 27t-22 7t-29 -5l-19 59q11 5 28.5 8.5t32.5 3.5q32 0 54.5 -12.5t37.5 -42.5q14 -29 30 -72t31 -92t29 -99.5t25 -94.5q18 49 36.5 102t37 106.5t36 105.5t34.5 99l68 -23l-169 -462h-94z" />
    <glyph glyph-name="xi" unicode="&#x3be;" horiz-adv-x="463" 
d="M333 -159q12 32 24 73t16 75q-57 2 -114.5 9t-104 26t-75.5 55t-29 96q0 34 11 61.5t29.5 49t42.5 36t50 21.5q-19 5 -37.5 14.5t-33.5 25t-24 36.5t-9 48q0 24 9.5 47t27.5 42.5t45.5 33.5t63.5 20q-19 -1 -37.5 -1.5t-32.5 -0.5q-24 0 -52 2.5t-43 5.5l13 61
q48 -6 94 -8.5t94 -2.5q32 0 75 2t81 4v-60q-20 -3 -35.5 -5.5t-29.5 -5l-28 -5t-31 -6.5q-133 -29 -133 -119q0 -42 27 -63t75 -26q12 -2 33.5 -2h43.5h48v-64q-16 0 -50.5 -0.5t-72.5 -3.5q-28 -2 -53 -11t-43.5 -25.5t-29.5 -40.5t-11 -55q0 -37 17 -61t52 -38t88 -21
t124 -10q20 -1 30 -9t10 -31q0 -21 -6 -46.5t-14.5 -51t-18 -49t-16.5 -39.5z" />
    <glyph glyph-name="omicron" unicode="&#x3bf;" horiz-adv-x="536" 
d="M171 10q-41 22 -69 57.5t-42 81t-14 92.5t13.5 91.5t41.5 79.5t69.5 56t97.5 21q55 0 97 -21.5t69.5 -56.5t41.5 -80t14 -92t-14 -92t-41.5 -80t-69.5 -56.5t-97 -21.5t-97 21zM158 110q19 -26 46.5 -42.5t63.5 -16.5q37 0 64.5 16.5t46 43t27.5 60.5t9 69t-9 69
t-27.5 60.5t-46 42.5t-64.5 16t-64.5 -16t-45.5 -42.5t-27 -60t-9 -68.5q0 -36 9 -70t27 -61z" />
    <glyph glyph-name="pi" unicode="&#x3c0;" horiz-adv-x="664" 
d="M145 0v415h-8q-29 0 -46 -12.5t-34 -36.5l-52 36q23 36 47 50t43 19q16 4 34.5 5t37.5 1h437v-63h-103v-296q0 -34 7.5 -51t34.5 -17q10 0 19.5 2t17.5 4l12 -55q-11 -5 -29 -8.5t-32 -3.5q-51 0 -78 27t-27 85v314h-206v-415h-75z" />
    <glyph glyph-name="rho" unicode="&#x3c1;" horiz-adv-x="556" 
d="M75 -189v425q0 14 1 27.5t2 27.5q3 40 18 76t41.5 63t64 43t86.5 16q62 0 103.5 -21t67 -55t36.5 -77t11 -88q0 -51 -14.5 -98t-42 -82.5t-68 -57t-92.5 -21.5q-48 0 -81 15.5t-59 40.5v-234h-74zM151 115q26 -26 58 -45t77 -19q34 0 61 14.5t45 40t27.5 59.5t9.5 73
q0 35 -8 69t-25 60.5t-43.5 43t-64.5 16.5q-60 0 -93.5 -36.5t-40.5 -91.5q-3 -29 -3 -56v-128z" />
    <glyph glyph-name="sigma1" unicode="&#x3c2;" horiz-adv-x="470" 
d="M301 -148q11 31 21 70t14 70q-54 3 -106 16.5t-93.5 42.5t-66.5 77t-25 120q0 60 19 105.5t49.5 75.5t70 45t80.5 15q53 0 99.5 -23.5t72.5 -79.5l-58 -32q-23 42 -51.5 57.5t-67.5 15.5q-27 0 -52 -11.5t-44 -33.5t-30 -55t-11 -75q0 -56 17 -93t49.5 -59.5t78.5 -33
t104 -13.5q20 -1 28 -8.5t8 -30.5q0 -20 -5.5 -44.5t-13 -49t-16.5 -47t-15 -38.5z" />
    <glyph glyph-name="sigma" unicode="&#x3c3;" horiz-adv-x="597" 
d="M402 416q46 -32 69 -83t23 -103q0 -44 -13.5 -87.5t-41 -77.5t-70.5 -55t-103 -21q-54 0 -94.5 21t-67.5 55t-40 75.5t-13 83.5q0 52 15 96t43.5 77t71 53t97.5 24q30 2 58.5 2.5t57.5 0.5h153v-61h-145zM299 414q-37 0 -68 -12t-53.5 -35t-35 -58.5t-12.5 -81.5
q0 -35 9 -66.5t27 -55.5t44.5 -38t62.5 -14q38 0 65 14.5t44.5 39t26 57.5t8.5 70q0 33 -8 61t-21.5 51t-31 40t-36.5 28h-21z" />
    <glyph glyph-name="tau" unicode="&#x3c4;" horiz-adv-x="499" 
d="M0 399q9 15 25 34t42 30q19 8 41 11t48 3h288v-62h-173v-285q0 -42 10.5 -60t48.5 -18q14 0 29.5 3t28.5 7l12 -58q-18 -6 -41.5 -10.5t-43.5 -4.5q-60 0 -89.5 29t-29.5 92v305h-34q-9 0 -21.5 -0.5t-29.5 -3.5q-20 -4 -34.5 -18t-25.5 -29z" />
    <glyph glyph-name="upsilon" unicode="&#x3c5;" horiz-adv-x="548" 
d="M166 189q0 -61 25.5 -96.5t82.5 -35.5q55 0 83.5 30t39.5 89q5 23 5.5 50t0.5 57q0 26 -1.5 49t-4 45.5t-6.5 46t-8 50.5l76 10q9 -51 14 -98.5t5 -101.5q0 -61 -6 -109q-11 -85 -61 -135.5t-141 -50.5q-181 0 -181 202v149q0 15 -1 29t-5 24.5t-12.5 16.5t-23.5 6
q-5 0 -10 -0.5t-10 -1.5l-17 61q9 4 22 7t29 3q47 0 69 -23.5t30 -57.5q4 -17 5 -34.5t1 -35.5v-145z" />
    <glyph glyph-name="phi" unicode="&#x3c6;" horiz-adv-x="660" 
d="M294 -189v189q-54 2 -99.5 18.5t-79 47t-52.5 74.5t-19 101t19 100t52 72.5t79 45.5t100 18v190h71v-190q54 -2 100 -17.5t79.5 -45t52.5 -73t19 -100.5q0 -59 -19 -103t-53 -74t-79.5 -46t-99.5 -18v-189h-71zM365 62q35 2 67 14t56 34t38 54.5t14 76.5q0 43 -14 75
t-38 53.5t-55.5 32.5t-67.5 13v-353zM294 415q-36 -2 -67.5 -13.5t-55 -33t-37.5 -53t-14 -74.5q0 -44 14 -76.5t38 -54.5t55.5 -34t66.5 -14v353z" />
    <glyph glyph-name="chi" unicode="&#x3c7;" horiz-adv-x="501" 
d="M31 -172l176 333l-84 190q-12 28 -26.5 49.5t-37.5 21.5q-15 0 -27 -5l-17 61q9 4 24.5 7.5t31.5 3.5q24 0 41 -7t30 -20.5t24 -33.5t22 -46l68 -158l131 265l66 -27l-160 -309l116 -225q13 -25 27 -43t40 -18q15 0 28 4l12 -56q-11 -5 -26.5 -8t-25.5 -3
q-29 0 -49.5 10.5t-36.5 28.5t-28.5 41t-25.5 48l-78 154l-149 -283z" />
    <glyph glyph-name="psi" unicode="&#x3c8;" horiz-adv-x="722" 
d="M321 -189v179q-69 3 -117.5 20t-78.5 48.5t-44 77.5t-14 109v111q0 26 -1 57t-6 60l77 11q3 -14 4.5 -30.5t2.5 -33.5t1 -33.5v-29.5v-107q0 -102 42.5 -145.5t133.5 -46.5v548h75v-548q70 1 112 28.5t55 78.5q6 23 8 52t2 59q0 52 -5 98t-14 100l77 10q9 -51 15 -102
t6 -105q0 -61 -9 -109q-14 -82 -79 -129t-168 -49v-179h-75z" />
    <glyph glyph-name="omega" unicode="&#x3c9;" horiz-adv-x="785" 
d="M210 461q-31 -45 -54 -109t-23 -133q0 -75 27 -119t84 -44q28 0 47.5 10.5t32 30t19 47t9.5 61.5q1 9 1.5 28t1 40.5t0.5 42v32.5h76v-32.5t0.5 -42t1 -40.5t1.5 -28q2 -31 8.5 -58t19.5 -47.5t33.5 -32t51.5 -11.5q52 0 81 45t29 126q0 30 -6 63t-16.5 64t-25.5 59
t-32 48l68 22q18 -18 34 -46.5t28.5 -62t20 -69.5t7.5 -68q0 -53 -11.5 -98t-35.5 -78.5t-60.5 -52.5t-85.5 -19q-58 0 -93.5 29.5t-55.5 81.5q-22 -49 -58.5 -80t-98.5 -31q-48 0 -82 17.5t-56 47.5t-32.5 71t-10.5 88q0 39 8 78.5t20.5 75.5t27.5 66t30 50z" />
    <glyph glyph-name="iotadieresis" unicode="&#x3ca;" horiz-adv-x="264" 
d="M259 5q-11 -5 -30.5 -10.5t-42.5 -5.5q-53 0 -82 28t-29 91v369h75v-359q0 -34 9.5 -50.5t36.5 -16.5q17 0 29 3.5t22 6.5zM202 590q-20 0 -34.5 16.5t-14.5 39.5t14.5 39t34.5 16q21 0 35.5 -16t14.5 -39t-14.5 -39.5t-35.5 -16.5zM30 590q-21 0 -35.5 16.5t-14.5 39.5
t14.5 39t35.5 16q20 0 34.5 -16t14.5 -39t-14.5 -39.5t-34.5 -16.5z" />
    <glyph glyph-name="upsilondieresis" unicode="&#x3cb;" horiz-adv-x="548" 
d="M166 189q0 -61 25.5 -96.5t82.5 -35.5q55 0 83.5 30t39.5 89q5 23 5.5 50t0.5 57q0 26 -1.5 49t-4 45.5t-6.5 46t-8 50.5l76 10q9 -51 14 -98.5t5 -101.5q0 -61 -6 -109q-11 -85 -61 -135.5t-141 -50.5q-181 0 -181 202v149q0 15 -1 29t-5 24.5t-12.5 16.5t-23.5 6
q-5 0 -10 -0.5t-10 -1.5l-17 61q9 4 22 7t29 3q47 0 69 -23.5t30 -57.5q4 -17 5 -34.5t1 -35.5v-145zM356 590q-20 0 -34.5 16.5t-14.5 39.5t14.5 39t34.5 16q21 0 35.5 -16t14.5 -39t-14.5 -39.5t-35.5 -16.5zM184 590q-21 0 -35.5 16.5t-14.5 39.5t14.5 39t35.5 16
q20 0 34.5 -16t14.5 -39t-14.5 -39.5t-34.5 -16.5z" />
    <glyph glyph-name="omicrontonos" unicode="&#x3cc;" horiz-adv-x="536" 
d="M171 10q-41 22 -69 57.5t-42 81t-14 92.5t13.5 91.5t41.5 79.5t69.5 56t97.5 21q55 0 97 -21.5t69.5 -56.5t41.5 -80t14 -92t-14 -92t-41.5 -80t-69.5 -56.5t-97 -21.5t-97 21zM158 110q19 -26 46.5 -42.5t63.5 -16.5q37 0 64.5 16.5t46 43t27.5 60.5t9 69t-9 69
t-27.5 60.5t-46 42.5t-64.5 16t-64.5 -16t-45.5 -42.5t-27 -60t-9 -68.5q0 -36 9 -70t27 -61zM224 556l93 193l68 -27l-114 -187z" />
    <glyph glyph-name="upsilontonos" unicode="&#x3cd;" horiz-adv-x="548" 
d="M166 189q0 -61 25.5 -96.5t82.5 -35.5q55 0 83.5 30t39.5 89q5 23 5.5 50t0.5 57q0 26 -1.5 49t-4 45.5t-6.5 46t-8 50.5l76 10q9 -51 14 -98.5t5 -101.5q0 -61 -6 -109q-11 -85 -61 -135.5t-141 -50.5q-181 0 -181 202v149q0 15 -1 29t-5 24.5t-12.5 16.5t-23.5 6
q-5 0 -10 -0.5t-10 -1.5l-17 61q9 4 22 7t29 3q47 0 69 -23.5t30 -57.5q4 -17 5 -34.5t1 -35.5v-145zM228 556l93 193l68 -27l-114 -187z" />
    <glyph glyph-name="omegatonos" unicode="&#x3ce;" horiz-adv-x="785" 
d="M210 461q-31 -45 -54 -109t-23 -133q0 -75 27 -119t84 -44q28 0 47.5 10.5t32 30t19 47t9.5 61.5q1 9 1.5 28t1 40.5t0.5 42v32.5h76v-32.5t0.5 -42t1 -40.5t1.5 -28q2 -31 8.5 -58t19.5 -47.5t33.5 -32t51.5 -11.5q52 0 81 45t29 126q0 30 -6 63t-16.5 64t-25.5 59
t-32 48l68 22q18 -18 34 -46.5t28.5 -62t20 -69.5t7.5 -68q0 -53 -11.5 -98t-35.5 -78.5t-60.5 -52.5t-85.5 -19q-58 0 -93.5 29.5t-55.5 81.5q-22 -49 -58.5 -80t-98.5 -31q-48 0 -82 17.5t-56 47.5t-32.5 71t-10.5 88q0 39 8 78.5t20.5 75.5t27.5 66t30 50zM342 556
l93 193l68 -27l-114 -187z" />
    <glyph glyph-name="afii10023" unicode="&#x401;" horiz-adv-x="514" 
d="M81 0v667h389v-69h-309v-214h221v-69h-222v-246h334v-69h-413zM365 756q-20 0 -34.5 16.5t-14.5 39.5t14.5 39t34.5 16q21 0 35.5 -16t14.5 -39t-14.5 -39.5t-35.5 -16.5zM193 756q-21 0 -35.5 16.5t-14.5 39.5t14.5 39t35.5 16q20 0 34.5 -16t14.5 -39t-14.5 -39.5
t-34.5 -16.5z" />
    <glyph glyph-name="afii10051" unicode="&#x402;" horiz-adv-x="675" 
d="M167 0v598h-167v69h423v-69h-177v-191q23 16 64 32t96 16q50 0 91.5 -14t71 -42t45.5 -70t16 -98q0 -58 -17.5 -101.5t-49 -72t-74 -43t-91.5 -14.5h-49v69h49q31 0 58 8.5t47 27.5t32 49t12 72q0 76 -40 116.5t-109 40.5q-25 0 -48 -5.5t-43 -13.5t-35.5 -17.5
t-25.5 -18.5v-328h-79z" />
    <glyph glyph-name="afii10052" unicode="&#x403;" horiz-adv-x="480" 
d="M81 0v667h389v-73h-309v-594h-80zM201 710l-37 37l167 139l51 -52z" />
    <glyph glyph-name="afii10053" unicode="&#x404;" horiz-adv-x="591" 
d="M134 313q2 -62 17.5 -109t41.5 -79.5t61.5 -49t77.5 -16.5q62 0 101.5 28.5t66.5 73.5l61 -40q-15 -25 -35.5 -49t-48.5 -43t-65 -30.5t-84 -11.5q-59 0 -109.5 19.5t-88.5 61.5t-59.5 107t-21.5 156q0 93 24 159.5t63 108.5t89.5 61.5t103.5 19.5q85 0 140.5 -37
t87.5 -100l-65 -39q-10 19 -25.5 37.5t-35.5 33t-45 23.5t-55 9q-88 0 -136 -58t-59 -166h244v-70h-246z" />
    <glyph glyph-name="afii10054" unicode="&#x405;" horiz-adv-x="516" 
d="M93 143q29 -42 76 -63t96 -21q26 0 49.5 6.5t41 20t28 35.5t10.5 52q0 28 -13 49.5t-35 38.5t-50 30.5t-58 26.5q-34 15 -67 30.5t-59.5 37.5t-43 51t-16.5 71q0 43 17.5 75.5t47 54t67 32t78.5 10.5q63 0 121 -25t94 -79l-61 -48q-26 36 -66.5 58.5t-88.5 22.5
q-59 0 -91.5 -26.5t-32.5 -70.5q0 -25 11.5 -42.5t32 -32t49.5 -27.5t65 -29q34 -15 67 -32t59 -40t42 -54t16 -74q0 -51 -17.5 -88t-47.5 -61t-69.5 -35t-84.5 -11q-34 0 -67.5 7.5t-64 21.5t-56 34.5t-42.5 46.5z" />
    <glyph glyph-name="uni0406" unicode="&#x406;" horiz-adv-x="242" 
d="M81 0v667h80v-667h-80z" />
    <glyph glyph-name="afii10056" unicode="&#x407;" horiz-adv-x="242" 
d="M81 0v667h80v-667h-80zM212 756q-20 0 -34.5 16.5t-14.5 39.5t14.5 39t34.5 16q21 0 35.5 -16t14.5 -39t-14.5 -39.5t-35.5 -16.5zM40 756q-21 0 -35.5 16.5t-14.5 39.5t14.5 39t35.5 16q20 0 34.5 -16t14.5 -39t-14.5 -39.5t-34.5 -16.5z" />
    <glyph glyph-name="afii10057" unicode="&#x408;" horiz-adv-x="239" 
d="M-39 -67q60 10 91.5 35t31.5 73v626h80v-624q0 -82 -51 -124.5t-138 -52.5z" />
    <glyph glyph-name="afii10058" unicode="&#x409;" horiz-adv-x="933" 
d="M13 0v69h20q14 0 28.5 2t28.5 8t26.5 18t22.5 33q31 63 37 161.5t6 234.5v141h353v-243h130q54 0 96.5 -15t72 -42.5t44.5 -66t15 -85.5q0 -48 -15 -87.5t-44.5 -68t-72 -44t-96.5 -15.5h-210v598h-195v-78q0 -166 -12.5 -270.5t-45.5 -161.5q-28 -48 -68 -68t-91 -20
h-30zM535 69h126q67 0 107 38.5t40 107.5q0 66 -40 103t-106 37h-127v-286z" />
    <glyph glyph-name="afii10059" unicode="&#x40a;" horiz-adv-x="930" 
d="M81 0v667h80v-256h295v256h80v-256h122q111 0 171.5 -52t60.5 -149q0 -100 -60.5 -155t-171.5 -55h-202v341h-295v-341h-80zM536 69h117q69 0 110.5 36t41.5 105q0 34 -11.5 58.5t-31.5 40.5t-47.5 24t-60.5 8h-118v-272z" />
    <glyph glyph-name="afii10060" unicode="&#x40b;" horiz-adv-x="685" 
d="M167 0v598h-167v69h423v-69h-177v-191q23 16 63 33t97 17q97 0 150.5 -52t53.5 -161v-244h-80v244q0 63 -31.5 101t-100.5 38q-25 0 -48 -5.5t-43 -13.5t-35.5 -17.5t-25.5 -18.5v-328h-79z" />
    <glyph glyph-name="afii10061" unicode="&#x40c;" horiz-adv-x="560" 
d="M86 0v667h80v-291h64q20 0 33.5 6t25.5 23t25 48t31 81q12 35 24.5 60t28.5 41.5t37.5 24t51.5 7.5h57v-69h-41q-17 0 -29 -4.5t-22 -15t-18 -28t-17 -42.5q-13 -38 -24.5 -65.5t-22 -47t-20.5 -32.5t-21 -22l226 -341h-96l-205 307h-88v-307h-80zM252 710l-37 37
l167 139l51 -52z" />
    <glyph glyph-name="afii10062" unicode="&#x40e;" horiz-adv-x="553" 
d="M84 -6v69h36q18 0 36.5 3t36.5 15t36 37t36 69l-253 480h93l204 -399q19 38 41 87.5t44.5 103t43 107.5t35.5 101h82q-45 -135 -103.5 -267.5t-121.5 -250.5q-16 -30 -33 -57.5t-38.5 -49.5t-49.5 -35t-66 -13h-59zM194 867q4 -23 15 -39t25 -25.5t29 -14t28 -4.5t28 4.5
t29.5 14t25.5 25.5t15 39h64q-1 -39 -17 -67t-39.5 -45.5t-52 -26t-53.5 -8.5q-26 0 -54 8.5t-51.5 26t-39 45.5t-16.5 67h64z" />
    <glyph glyph-name="afii10145" unicode="&#x40f;" horiz-adv-x="655" 
d="M85 0v667h81v-596h323v596h80v-667h-198v-140h-80v140h-206z" />
    <glyph glyph-name="afii10017" unicode="&#x410;" horiz-adv-x="568" 
d="M0 0l257 667h49l262 -667h-87l-79 206h-242l-76 -206h-84zM186 277h190l-97 255z" />
    <glyph glyph-name="afii10018" unicode="&#x411;" horiz-adv-x="561" 
d="M86 0v667h362v-71h-282v-197h121q112 0 170.5 -50t58.5 -147q0 -100 -55.5 -151t-170.5 -51h-204zM166 69h126q66 0 102 31t36 100t-38 99.5t-99 30.5h-127v-261z" />
    <glyph glyph-name="afii10019" unicode="&#x412;" horiz-adv-x="537" 
d="M81 0v667h190q100 0 151 -46t51 -124q0 -64 -36.5 -98.5t-93.5 -44.5q28 -3 57.5 -13t53 -29.5t38.5 -50t15 -75.5q0 -43 -14.5 -77.5t-40 -58.5t-61.5 -37t-78 -13h-232zM161 384h103q60 0 92.5 32t32.5 84q0 98 -115 98h-113v-214zM161 69h148q51 0 82 29.5t31 89.5
q0 127 -155 127h-106v-246z" />
    <glyph glyph-name="afii10020" unicode="&#x413;" horiz-adv-x="480" 
d="M81 0v667h389v-73h-309v-594h-80z" />
    <glyph glyph-name="afii10021" unicode="&#x414;" horiz-adv-x="626" 
d="M10 -140v209h42q39 60 67 128t45 141q9 37 15 79t9.5 85t5 85t1.5 80h342v-598h54v-209h-80v140h-421v-140h-80zM457 69v529h-185q0 -33 -2.5 -69.5t-6.5 -72.5t-10 -71t-13 -65q-8 -35 -19.5 -71t-24.5 -69t-27 -61.5t-27 -49.5h315z" />
    <glyph glyph-name="afii10022" unicode="&#x415;" horiz-adv-x="514" 
d="M81 0v667h389v-69h-309v-214h221v-69h-222v-246h334v-69h-413z" />
    <glyph glyph-name="afii10024" unicode="&#x416;" horiz-adv-x="792" 
d="M23 0l195 332q-13 10 -23 24.5t-19 34t-18.5 45t-21.5 58.5q-13 35 -22 55.5t-18.5 31.5t-22 14t-31.5 3h-23v69h46q32 0 52.5 -8t35.5 -26t28 -48t31 -73q16 -39 27 -66.5t22 -44.5t23.5 -24.5t30.5 -7.5h43v298h76v-298h41q18 0 31 7.5t24.5 24.5t23 44.5t27.5 66.5
q18 45 31 74.5t28 47.5t35.5 25.5t52.5 7.5h42v-69h-23q-20 0 -32 -3t-21.5 -14t-18.5 -31.5t-22 -55.5q-13 -34 -23 -59t-19.5 -43t-18.5 -30.5t-20 -21.5l194 -340h-98l-167 299h-67v-299h-76v299h-68l-176 -299h-91z" />
    <glyph glyph-name="afii10025" unicode="&#x417;" horiz-adv-x="527" 
d="M82 146q29 -42 71 -67.5t99 -25.5q77 0 114.5 35.5t37.5 92.5t-41 89.5t-104 35.5q-19 1 -48 1h-48v67h23t32.5 0.5l35 1t30.5 1.5q21 3 40.5 13.5t34.5 27t23.5 37.5t8.5 44q0 48 -32 80.5t-95 32.5t-101.5 -25t-60.5 -73l-64 37q62 129 228 129q53 0 92 -13.5
t64.5 -36.5t38 -54t12.5 -66q0 -32 -9 -59t-24 -48.5t-34.5 -37t-40.5 -24.5q26 -9 48.5 -21t39 -30t25.5 -44t9 -63q0 -47 -17 -83.5t-48 -61.5t-74.5 -38.5t-96.5 -13.5q-75 0 -135 26t-98 88z" />
    <glyph glyph-name="afii10026" unicode="&#x418;" horiz-adv-x="668" 
d="M85 0v667h80v-483l338 409v74h80v-667h-80v483l-338 -409v-74h-80z" />
    <glyph glyph-name="afii10027" unicode="&#x419;" horiz-adv-x="668" 
d="M85 0v667h80v-483l338 409v74h80v-667h-80v483l-338 -409v-74h-80zM240 867q4 -23 15 -39t25 -25.5t29 -14t28 -4.5t28 4.5t29.5 14t25.5 25.5t15 39h64q-1 -39 -17 -67t-39.5 -45.5t-52 -26t-53.5 -8.5q-26 0 -54 8.5t-51.5 26t-39 45.5t-16.5 67h64z" />
    <glyph glyph-name="afii10028" unicode="&#x41a;" horiz-adv-x="560" 
d="M86 0v667h80v-291h64q20 0 33.5 6t25.5 23t25 48t31 81q12 35 24.5 60t28.5 41.5t37.5 24t51.5 7.5h57v-69h-41q-17 0 -29 -4.5t-22 -15t-18 -28t-17 -42.5q-13 -38 -24.5 -65.5t-22 -47t-20.5 -32.5t-21 -22l226 -341h-96l-205 307h-88v-307h-80z" />
    <glyph glyph-name="afii10029" unicode="&#x41b;" horiz-adv-x="645" 
d="M17 0v69h20q14 0 28.5 2t28.5 8t26.5 18t22.5 33q31 63 37 161.5t6 234.5v141h373v-667h-80v598h-215v-78q0 -166 -12.5 -270.5t-45.5 -161.5q-28 -48 -68 -68t-91 -20h-30z" />
    <glyph glyph-name="afii10030" unicode="&#x41c;" horiz-adv-x="743" 
d="M81 0v667h94l194 -515l200 515h93v-667h-77v509l-207 -520h-16l-203 519v-508h-78z" />
    <glyph glyph-name="afii10031" unicode="&#x41d;" horiz-adv-x="655" 
d="M81 0v667h80v-289h334v289h79v-667h-79v307h-334v-307h-80z" />
    <glyph glyph-name="afii10032" unicode="&#x41e;" horiz-adv-x="661" 
d="M204 17q-53 30 -87.5 78.5t-51 111t-16.5 127.5t16.5 127t51 111t87.5 78.5t127 29.5q73 0 126 -29.5t87.5 -78.5t51 -111t16.5 -127t-16.5 -127.5t-51 -111t-87.5 -78.5t-126 -30q-74 0 -127 30zM181 144q25 -39 62 -62.5t88 -23.5t88 23.5t61 62.5t36 88.5t12 101.5
q0 51 -11.5 100.5t-35.5 88.5t-61.5 62.5t-88.5 23.5t-88.5 -23.5t-62 -62.5t-36 -88.5t-11.5 -100.5q0 -52 12 -101.5t36 -88.5z" />
    <glyph glyph-name="afii10033" unicode="&#x41f;" horiz-adv-x="660" 
d="M86 0v667h489v-667h-80v595h-328v-595h-81z" />
    <glyph glyph-name="afii10034" unicode="&#x420;" horiz-adv-x="544" 
d="M81 0v667h208q115 0 170.5 -51t55.5 -151q0 -97 -58.5 -147t-170.5 -50h-125v-268h-80zM161 338h131q61 0 99 30t38 99t-36 100t-102 31h-130v-260z" />
    <glyph glyph-name="afii10035" unicode="&#x421;" horiz-adv-x="569" 
d="M541 121q-13 -24 -32 -48t-45 -43t-60 -31t-77 -12q-59 0 -109.5 19.5t-88 61t-59 106.5t-21.5 157q0 93 23 159.5t60.5 108.5t85 61.5t96.5 19.5q76 0 135 -37t88 -100l-65 -39q-9 18 -23.5 36.5t-34 33t-43 24t-50.5 9.5q-88 0 -137.5 -72t-49.5 -205q0 -65 15 -115.5
t41 -85t61.5 -52t76.5 -17.5q29 0 51.5 8t41 21.5t33 32t26.5 38.5z" />
    <glyph glyph-name="afii10036" unicode="&#x422;" horiz-adv-x="511" 
d="M216 0v598h-207v69h493v-69h-207v-598h-79z" />
    <glyph glyph-name="afii10037" unicode="&#x423;" horiz-adv-x="553" 
d="M84 -6v69h36q18 0 36.5 3t36.5 15t36 37t36 69l-253 480h93l204 -399q19 38 41 87.5t44.5 103t43 107.5t35.5 101h82q-45 -135 -103.5 -267.5t-121.5 -250.5q-16 -30 -33 -57.5t-38.5 -49.5t-49.5 -35t-66 -13h-59z" />
    <glyph glyph-name="afii10038" unicode="&#x424;" horiz-adv-x="710" 
d="M315 -11v94q-133 5 -202.5 70.5t-69.5 180.5t71 179.5t201 69.5v97h80v-97q134 -5 203 -69.5t69 -179.5q0 -113 -69 -179.5t-203 -71.5v-94h-80zM395 150q87 1 139.5 46t52.5 138q0 45 -14.5 79t-40 57t-60.5 35t-77 12v-367zM315 517q-88 -2 -139.5 -47.5t-51.5 -135.5
q0 -92 53 -137.5t138 -46.5v367z" />
    <glyph glyph-name="afii10039" unicode="&#x425;" horiz-adv-x="516" 
d="M0 0l207 342l-189 325h97l143 -262l146 262h92l-190 -319l210 -348h-100l-160 286l-164 -286h-92z" />
    <glyph glyph-name="afii10040" unicode="&#x426;" horiz-adv-x="663" 
d="M90 0v667h80v-598h320v598h79v-598h54v-209h-80v140h-453z" />
    <glyph glyph-name="afii10041" unicode="&#x427;" horiz-adv-x="614" 
d="M449 0v290q-32 -11 -83 -18t-102 -7q-100 0 -148 38t-57 117q-2 21 -3 39.5t-1 38.5v169h80v-160q0 -14 0.5 -32t2.5 -32q3 -30 11 -50t24 -32.5t42.5 -17.5t66.5 -5q19 0 41.5 1.5t45 5t43.5 8.5t37 11v303h79v-667h-79z" />
    <glyph glyph-name="afii10042" unicode="&#x428;" horiz-adv-x="892" 
d="M93 0v667h80v-598h231v598h80v-598h231v598h80v-667h-702z" />
    <glyph glyph-name="afii10043" unicode="&#x429;" horiz-adv-x="895" 
d="M102 0v667h80v-598h222v598h80v-598h227v598h79v-598h54v-209h-80v140h-662z" />
    <glyph glyph-name="afii10044" unicode="&#x42a;" horiz-adv-x="609" 
d="M115 0v598h-100v69h180v-233h146q115 0 171.5 -59t56.5 -155q0 -49 -14 -89.5t-42 -69.5t-71 -45t-101 -16h-226zM195 69h142q69 0 108 41t39 110t-40 107t-106 38h-143v-296z" />
    <glyph glyph-name="afii10045" unicode="&#x42b;" horiz-adv-x="789" 
d="M86 0v667h80v-233h129q59 0 102 -15.5t71 -43.5t41.5 -67.5t13.5 -87.5q0 -49 -13.5 -89.5t-41.5 -69.5t-71 -45t-102 -16h-209zM166 69h125q72 0 109.5 41t37.5 110t-38.5 107t-107.5 38h-126v-296zM623 0v667h80v-667h-80z" />
    <glyph glyph-name="afii10046" unicode="&#x42c;" horiz-adv-x="579" 
d="M86 0v667h80v-253h145q117 0 172.5 -52t55.5 -149q0 -98 -56 -155.5t-172 -57.5h-225zM166 69h141q69 0 108 37.5t39 106.5t-40 100.5t-106 31.5h-142v-276z" />
    <glyph glyph-name="afii10047" unicode="&#x42d;" horiz-adv-x="597" 
d="M96 161q27 -43 70 -73t103 -30q89 0 137 65t52 190h-246v70h244q-8 106 -52 165t-131 59q-30 0 -57 -9t-49 -23.5t-39 -33t-28 -37.5l-65 39q38 65 100 101t147 36q57 0 105 -19.5t82.5 -60.5t54 -105t19.5 -153q0 -96 -21.5 -163t-59.5 -110t-89.5 -62.5t-111.5 -19.5
q-44 0 -79.5 11t-63.5 29.5t-48.5 41.5t-34.5 47z" />
    <glyph glyph-name="afii10048" unicode="&#x42e;" horiz-adv-x="903" 
d="M86 0v667h80v-293h136q5 60 23 115.5t51 98t81.5 67.5t113.5 25q70 0 122 -29t85.5 -77.5t50 -111t16.5 -128.5q0 -67 -16.5 -129.5t-50.5 -111t-85.5 -77.5t-121.5 -29q-66 0 -115 26t-82 70t-51 101t-21 120h-136v-304h-80zM428 142q24 -38 59.5 -61t83.5 -23t83.5 23
t59.5 61.5t35.5 88.5t11.5 103t-11.5 102.5t-35 88t-59 61.5t-84.5 23t-84.5 -23t-59 -61.5t-35 -88t-11.5 -102.5t11.5 -103t35.5 -89z" />
    <glyph glyph-name="afii10049" unicode="&#x42f;" horiz-adv-x="569" 
d="M40 0v69h26q10 0 25 3t32.5 23.5t34.5 66t31 130.5q-69 20 -103.5 65t-34.5 120q0 40 13 75t40 60.5t68 40t97 14.5h214v-667h-80v282h-137q-17 -96 -40.5 -152.5t-49 -85t-51.5 -36.5t-48 -8h-37zM403 351v247h-136q-64 0 -98 -31t-34 -88q0 -61 34.5 -94.5t100.5 -33.5
h133z" />
    <glyph glyph-name="afii10065" unicode="&#x430;" horiz-adv-x="470" 
d="M334 0l-4 41q-25 -25 -57.5 -38.5t-71.5 -13.5q-31 0 -60.5 9.5t-52 28t-36.5 46.5t-14 65q0 51 27.5 84t69.5 52.5t93 27.5t99 8v6q0 60 -25.5 86t-73.5 26q-33 0 -60.5 -14.5t-46.5 -38.5l-54 38q29 39 68.5 57.5t99.5 18.5q80 0 124.5 -41t44.5 -137v-311h-70z
M327 249q-33 -1 -70 -5t-68.5 -15.5t-52 -33.5t-20.5 -58q0 -23 9 -39t22.5 -26.5t30 -15t32.5 -4.5q35 0 64.5 14.5t52.5 34.5v148z" />
    <glyph glyph-name="afii10066" unicode="&#x431;" horiz-adv-x="538" 
d="M269 563q-42 -2 -68 -18.5t-41 -42t-22.5 -56t-12.5 -60.5q26 35 63.5 57t97.5 22q49 0 87.5 -18t65 -50t40 -75.5t13.5 -94.5q0 -45 -14 -87.5t-42 -76t-70.5 -54t-98.5 -20.5q-58 0 -99.5 21t-68 58.5t-39 89t-12.5 112.5q0 181 53.5 269t171.5 91l39 1q31 1 48 10.5
t20 38.5l60 -11q-4 -60 -34.5 -81t-88.5 -23zM163 109q18 -25 44.5 -40.5t62.5 -15.5t63.5 15t45.5 40t27 56.5t9 63.5t-9 63.5t-27 56t-45.5 39.5t-63.5 15t-63 -14.5t-45 -39t-26.5 -55.5t-8.5 -64q0 -32 9 -63.5t27 -56.5z" />
    <glyph glyph-name="afii10067" unicode="&#x432;" horiz-adv-x="488" 
d="M72 0v477h204q75 0 113 -30.5t38 -87.5q0 -45 -21.5 -75t-54.5 -38q19 -3 37 -9.5t31 -19.5t21 -32.5t8 -48.5q0 -33 -11 -58.5t-31 -42.5t-47.5 -26t-60.5 -9h-226zM148 63h141q16 0 31 3.5t26.5 12t18.5 23t7 35.5q0 32 -23.5 53t-68.5 21h-132v-148zM148 274h123
q42 0 61.5 21.5t19.5 53.5q-2 65 -74 65h-130v-140z" />
    <glyph glyph-name="afii10068" unicode="&#x433;" horiz-adv-x="381" 
d="M72 0v477h309v-63h-231v-414h-78z" />
    <glyph glyph-name="afii10069" unicode="&#x434;" horiz-adv-x="555" 
d="M12 -108v171h31q30 18 49.5 52t30 74.5t14.5 83.5t4 80v124h329v-414h53v-171h-76v108h-359v-108h-76zM392 63v351h-176v-87q0 -36 -4 -73.5t-13 -72t-23.5 -65.5t-35.5 -53h252z" />
    <glyph glyph-name="afii10070" unicode="&#x435;" horiz-adv-x="508" 
d="M122 243q0 -90 41 -141t119 -51q45 0 76 22t50 54l51 -34q-26 -45 -67.5 -74.5t-111.5 -29.5q-54 0 -97 16.5t-73.5 48t-47 78.5t-16.5 109q0 57 15.5 102.5t43 78t67 50t87.5 17.5q53 0 92.5 -18t65.5 -50.5t39 -78t13 -99.5h-347zM382 304q-1 31 -12 54.5t-28 39
t-39 23t-44 7.5q-48 0 -82.5 -28.5t-47.5 -95.5h253z" />
    <glyph glyph-name="afii10072" unicode="&#x436;" horiz-adv-x="662" 
d="M39 0l136 257q-9 10 -22 30t-34 58q-11 20 -18 33.5t-13 21.5t-13.5 11t-18.5 3h-26v63h38q24 0 39 -5.5t26 -17.5t21 -30.5t25 -45.5q18 -32 30 -52t21 -31t16.5 -15t17.5 -4h31v201h73v-201h30q10 0 17.5 4t16.5 15t21 31t30 52q15 27 25 45.5t21 30.5t26 17.5t39 5.5
h38v-63h-26q-11 0 -18.5 -3t-13.5 -11t-13 -21.5t-18 -33.5q-21 -38 -34 -57.5t-22 -29.5l138 -258h-83l-113 215h-61v-215h-73v215h-62l-112 -215h-82z" />
    <glyph glyph-name="afii10073" unicode="&#x437;" horiz-adv-x="431" 
d="M72 133q8 -16 18.5 -31.5t26 -27.5t37.5 -19t54 -7q56 0 83 22.5t27 61.5t-21 58t-63 24q-14 2 -36.5 2h-40.5v57q18 0 37.5 0.5t33.5 2.5q42 6 61 28t19 54q0 37 -29.5 54.5t-71.5 17.5q-90 0 -121 -94l-60 28q25 63 68 94t118 31q81 0 125 -33t44 -90q0 -46 -23.5 -77
t-66.5 -42q48 -6 75 -31t27 -74q0 -75 -51 -114t-139 -39q-41 0 -71 8.5t-52.5 23t-38 34.5t-27.5 44z" />
    <glyph glyph-name="afii10074" unicode="&#x438;" horiz-adv-x="533" 
d="M72 0v477h75v-327l239 267v60h75v-477h-75v327l-239 -267v-60h-75z" />
    <glyph glyph-name="afii10075" unicode="&#x439;" horiz-adv-x="533" 
d="M72 0v477h75v-327l239 267v60h75v-477h-75v327l-239 -267v-60h-75zM178 701q4 -23 15 -39t25 -25.5t29 -14t28 -4.5t28 4.5t29.5 14t25.5 25.5t15 39h64q-1 -39 -17 -67t-39.5 -45.5t-52 -26t-53.5 -8.5q-26 0 -54 8.5t-51.5 26t-39 45.5t-16.5 67h64z" />
    <glyph glyph-name="afii10076" unicode="&#x43a;" horiz-adv-x="471" 
d="M72 0v477h77v-196h53q12 0 20.5 4t16.5 14.5t17.5 29.5t23.5 49q14 31 27 50.5t27.5 30.5t31.5 14.5t39 3.5h47v-63h-29q-27 0 -45.5 -12.5t-36.5 -52.5q-20 -42 -31 -64t-22 -32l178 -253h-92l-149 218h-76v-218h-77z" />
    <glyph glyph-name="afii10077" unicode="&#x43b;" horiz-adv-x="519" 
d="M5 0v63h21q12 0 23 2.5t21 10t18.5 22t14.5 37.5q5 21 9 46t6.5 63t4 94t1.5 139h323v-477h-78v414h-169q-2 -93 -6.5 -167.5t-16.5 -125.5q-13 -57 -45 -89t-95 -32h-32z" />
    <glyph glyph-name="afii10078" unicode="&#x43c;" horiz-adv-x="621" 
d="M72 0v477h90l150 -349l148 349h89v-477h-78v348l-153 -348h-18l-152 348v-348h-76z" />
    <glyph glyph-name="afii10079" unicode="&#x43d;" horiz-adv-x="537" 
d="M72 0v477h78v-197h237v197h78v-477h-78v217h-237v-217h-78z" />
    <glyph glyph-name="afii10080" unicode="&#x43e;" horiz-adv-x="536" 
d="M171 10q-41 22 -69 57.5t-42 81t-14 92.5t13.5 91.5t41.5 79.5t69.5 56t97.5 21q55 0 97 -21.5t69.5 -56.5t41.5 -80t14 -92t-14 -92t-41.5 -80t-69.5 -56.5t-97 -21.5t-97 21zM158 110q19 -26 46.5 -42.5t63.5 -16.5q37 0 64.5 16.5t46 43t27.5 60.5t9 69t-9 69
t-27.5 60.5t-46 42.5t-64.5 16t-64.5 -16t-45.5 -42.5t-27 -60t-9 -68.5q0 -36 9 -70t27 -61z" />
    <glyph glyph-name="afii10081" unicode="&#x43f;" horiz-adv-x="536" 
d="M72 0v477h392v-477h-78v412h-236v-412h-78z" />
    <glyph glyph-name="afii10082" unicode="&#x440;" horiz-adv-x="524" 
d="M69 -189v666h70l6 -35q31 25 65.5 36t72.5 11q53 0 90 -20t60.5 -54t34 -78.5t10.5 -92.5q0 -58 -18 -105t-49.5 -80.5t-75.5 -51.5t-95 -18q-56 0 -94 16v-194h-77zM146 72q11 -8 32 -14.5t47 -6.5q38 0 70.5 13t56 37t36.5 59.5t13 80.5q0 33 -7 66.5t-23 60t-42.5 43
t-65.5 16.5q-32 0 -62 -14t-55 -37v-304z" />
    <glyph glyph-name="afii10083" unicode="&#x441;" horiz-adv-x="474" 
d="M448 102q-28 -58 -76.5 -85.5t-102.5 -27.5q-42 0 -82.5 15t-71.5 46t-50 77.5t-19 109.5q0 67 19 115t50 78.5t70 44.5t78 14q40 0 70.5 -12t52 -30t35 -38t19.5 -36l-57 -36q-21 48 -53 69t-67 21q-27 0 -52 -12.5t-45 -36.5t-32 -59t-12 -80t12 -80t32.5 -59t48 -36.5
t58.5 -12.5q35 0 67.5 20t53.5 65z" />
    <glyph glyph-name="afii10084" unicode="&#x442;" horiz-adv-x="393" 
d="M158 0v414h-153v63h383v-63h-152v-414h-78z" />
    <glyph glyph-name="afii10085" unicode="&#x443;" horiz-adv-x="453" 
d="M25 -126q11 -4 27.5 -7.5t33.5 -3.5q23 0 36 11t27 43l39 95l-188 465h88l141 -367l141 367h83l-244 -603q-18 -44 -50.5 -60t-67.5 -16q-23 0 -48.5 6.5t-39.5 12.5z" />
    <glyph glyph-name="afii10086" unicode="&#x444;" horiz-adv-x="660" 
d="M294 -189v189q-54 2 -99.5 18.5t-79 47t-52.5 74.5t-19 101t19 100t52 72.5t79 45.5t100 18v190h71v-190q54 -2 100 -17.5t79.5 -45t52.5 -73t19 -100.5q0 -59 -19 -103t-53 -74t-79.5 -46t-99.5 -18v-189h-71zM365 62q35 2 67 14t56 34t38 54.5t14 76.5q0 43 -14 75
t-38 53.5t-55.5 32.5t-67.5 13v-353zM294 415q-36 -2 -67.5 -13.5t-55 -33t-37.5 -53t-14 -74.5q0 -44 14 -76.5t38 -54.5t55.5 -34t66.5 -14v353z" />
    <glyph glyph-name="afii10087" unicode="&#x445;" horiz-adv-x="403" 
d="M0 0l160 243l-153 234h87l108 -171l109 171h82l-152 -232l158 -245h-83l-117 178l-116 -178h-83z" />
    <glyph glyph-name="afii10088" unicode="&#x446;" horiz-adv-x="550" 
d="M72 0v477h77v-417h229v417h78v-417h54v-168h-68v108h-370z" />
    <glyph glyph-name="afii10089" unicode="&#x447;" horiz-adv-x="520" 
d="M371 0v173q-33 -11 -70.5 -18t-79.5 -7q-78 0 -117.5 27.5t-48.5 81.5q-2 13 -3 30.5t-1 33.5v156h77v-156q0 -31 4 -51q8 -32 34.5 -44t71.5 -12q39 0 73 7t60 18v238h77v-477h-77z" />
    <glyph glyph-name="afii10090" unicode="&#x448;" horiz-adv-x="785" 
d="M72 0v477h77v-416h206v416h75v-416h206v416h77v-477h-641z" />
    <glyph glyph-name="afii10091" unicode="&#x449;" horiz-adv-x="801" 
d="M72 0v477h77v-416h203v416h74v-416h203v416h78v-416h54v-169h-67v108h-622z" />
    <glyph glyph-name="afii10092" unicode="&#x44a;" horiz-adv-x="530" 
d="M102 0v414h-97v63h176v-146h114q51 0 87.5 -12t60.5 -34t35.5 -51.5t11.5 -63.5q0 -35 -11.5 -66t-35.5 -54t-60.5 -36.5t-87.5 -13.5h-193zM181 63h110q57 0 86 27.5t29 79.5t-28.5 75t-85.5 23h-111v-205z" />
    <glyph glyph-name="afii10093" unicode="&#x44b;" horiz-adv-x="679" 
d="M72 0v477h79v-146h111q51 0 87 -12.5t59 -34t34 -51.5t11 -64q0 -35 -11 -65.5t-34 -53.5t-59 -36.5t-87 -13.5h-190zM151 63h107q57 0 84 27t27 79t-26.5 75.5t-83.5 23.5h-108v-205zM530 0v477h77v-477h-77z" />
    <glyph glyph-name="afii10094" unicode="&#x44c;" horiz-adv-x="505" 
d="M72 0v477h79v-146h119q51 0 87.5 -12.5t60.5 -34t35.5 -51.5t11.5 -64q0 -35 -11.5 -65.5t-35.5 -53.5t-60.5 -36.5t-87.5 -13.5h-198zM151 63h115q115 0 115 106q0 52 -28.5 75.5t-85.5 23.5h-116v-205z" />
    <glyph glyph-name="afii10095" unicode="&#x44d;" horiz-adv-x="488" 
d="M81 133q47 -83 133 -83q69 0 108.5 42t44.5 123h-219v63h218q-4 37 -17.5 65t-33.5 46.5t-45 28t-52 9.5q-40 0 -75 -21t-55 -66l-59 33q8 19 24 39.5t40 37.5t56 28t72 11q45 0 85.5 -13.5t70.5 -43.5t47.5 -77.5t17.5 -115.5q0 -63 -17.5 -110t-48.5 -78t-73.5 -46.5
t-91.5 -15.5q-64 0 -110.5 26t-76.5 82z" />
    <glyph glyph-name="afii10096" unicode="&#x44e;" horiz-adv-x="740" 
d="M72 0v477h77v-197h118q5 43 19.5 81.5t40.5 66.5t63.5 44.5t88.5 16.5q58 0 98.5 -20t65.5 -53.5t36 -77.5t11 -92q0 -53 -12.5 -99.5t-38 -81.5t-66 -55.5t-95.5 -20.5q-54 0 -92.5 17.5t-64.5 49t-39.5 73t-16.5 88.5h-116v-217h-77zM374 108q17 -25 43 -40t62 -15
t62 15t42 40.5t23.5 59.5t7.5 72q0 39 -7.5 72.5t-23.5 59t-42 40t-62 14.5t-62 -14.5t-43.5 -39.5t-25.5 -59t-8 -72q0 -39 8.5 -73t25.5 -60z" />
    <glyph glyph-name="afii10097" unicode="&#x44f;" horiz-adv-x="493" 
d="M27 0v63h28q8 0 19 2t22 12.5t22 34t19 67.5q-15 5 -32 15t-31.5 27.5t-24 42t-9.5 58.5q0 72 49.5 113.5t140.5 41.5h191v-477h-74v167h-138q-11 -57 -27.5 -90t-35 -50.5t-37 -22t-34.5 -4.5h-48zM347 230v184h-121q-48 0 -78 -24t-30 -67q0 -48 28.5 -70.5t79.5 -22.5
h121z" />
    <glyph glyph-name="afii10071" unicode="&#x451;" horiz-adv-x="508" 
d="M122 243q0 -90 41 -141t119 -51q45 0 76 22t50 54l51 -34q-26 -45 -67.5 -74.5t-111.5 -29.5q-54 0 -97 16.5t-73.5 48t-47 78.5t-16.5 109q0 57 15.5 102.5t43 78t67 50t87.5 17.5q53 0 92.5 -18t65.5 -50.5t39 -78t13 -99.5h-347zM382 304q-1 31 -12 54.5t-28 39
t-39 23t-44 7.5q-48 0 -82.5 -28.5t-47.5 -95.5h253zM349 590q-20 0 -34.5 16.5t-14.5 39.5t14.5 39t34.5 16q21 0 35.5 -16t14.5 -39t-14.5 -39.5t-35.5 -16.5zM177 590q-21 0 -35.5 16.5t-14.5 39.5t14.5 39t35.5 16q20 0 34.5 -16t14.5 -39t-14.5 -39.5t-34.5 -16.5z" />
    <glyph glyph-name="afii10099" unicode="&#x452;" horiz-adv-x="545" 
d="M72 0v554h-78v58h78v55h77v-55h149v-58h-149v-147q29 21 66 35.5t83 14.5q97 0 137.5 -49t40.5 -143v-233q0 -46 -9 -82t-25.5 -63.5t-39.5 -48t-50 -35.5l-39 56q24 16 40.5 33t26.5 37.5t14 45.5t4 57v234q0 66 -27 97.5t-87 31.5q-38 0 -73.5 -17.5t-61.5 -36.5v-341
h-77z" />
    <glyph glyph-name="afii10100" unicode="&#x453;" horiz-adv-x="381" 
d="M72 0v477h309v-63h-231v-414h-78zM152 544l-37 37l167 139l51 -52z" />
    <glyph glyph-name="afii10101" unicode="&#x454;" horiz-adv-x="488" 
d="M123 215q5 -82 46.5 -123t106.5 -41q45 0 78 20t53 62l55 -31q-29 -60 -78.5 -86.5t-113.5 -26.5q-48 0 -89 15.5t-71 46.5t-47 77.5t-17 108.5q0 64 18.5 111.5t49.5 79t71.5 46.5t84.5 15q40 0 71 -11t53.5 -28t37 -37.5t22.5 -39.5l-59 -33q-20 45 -54 66t-74 21
q-58 0 -97 -37.5t-46 -111.5h216v-63h-217z" />
    <glyph glyph-name="afii10102" unicode="&#x455;" horiz-adv-x="412" 
d="M95 118q17 -32 43.5 -49.5t71.5 -17.5q98 0 98 70q0 21 -6.5 35.5t-21 26t-37.5 22t-56 22.5q-36 12 -61 25.5t-41 29.5t-23.5 36t-7.5 47q0 58 42.5 91t112.5 33q58 0 97 -19.5t66 -55.5l-54 -43q-20 24 -47 40t-61 16q-42 0 -62.5 -16.5t-20.5 -40.5q0 -15 5.5 -26.5
t19.5 -21t36.5 -19t57.5 -21.5q66 -23 100 -58t34 -93q0 -34 -13 -60.5t-35.5 -44.5t-53.5 -27.5t-68 -9.5q-71 0 -111 26t-64 66z" />
    <glyph glyph-name="afii10103" unicode="&#x456;" horiz-adv-x="216" 
d="M108 553q-21 0 -36 16.5t-15 40.5q0 23 15 40t36 17t36 -17t15 -40q0 -24 -15 -40.5t-36 -16.5zM69 0v477h78v-477h-78z" />
    <glyph glyph-name="afii10104" unicode="&#x457;" horiz-adv-x="215" 
d="M69 0v477h77v-477h-77zM195 590q-20 0 -34.5 16.5t-14.5 39.5t14.5 39t34.5 16q21 0 35.5 -16t14.5 -39t-14.5 -39.5t-35.5 -16.5zM23 590q-21 0 -35.5 16.5t-14.5 39.5t14.5 39t35.5 16q20 0 34.5 -16t14.5 -39t-14.5 -39.5t-34.5 -16.5z" />
    <glyph glyph-name="afii10105" unicode="&#x458;" horiz-adv-x="214" 
d="M104 553q-21 0 -36 16.5t-15 40.5q0 23 15 40t36 17t36 -17t15 -40q0 -24 -15 -40.5t-36 -16.5zM-4 -142q18 13 31.5 26.5t21.5 29.5t12 36.5t4 47.5v479h78v-479q0 -77 -29 -121.5t-80 -73.5z" />
    <glyph glyph-name="afii10106" unicode="&#x459;" horiz-adv-x="762" 
d="M5 0v63h22q9 0 20 2t21.5 9.5t19.5 21.5t15 37q8 28 12 62.5t6 76.5t2 92.5v112.5h301v-146h107q51 0 87.5 -12t60.5 -33t35.5 -50.5t11.5 -63.5q0 -35 -11.5 -66t-35 -54.5t-60 -37.5t-87.5 -14h-186v414h-146q-2 -93 -6 -167.5t-16 -125.5q-13 -57 -44.5 -89t-88.5 -32
h-40zM424 63h103q57 0 86 28.5t29 80.5t-28.5 74t-85.5 22h-104v-205z" />
    <glyph glyph-name="afii10107" unicode="&#x45a;" horiz-adv-x="779" 
d="M72 0v477h78v-176h222v176h78v-176h110q93 0 138.5 -38t45.5 -104q0 -75 -45 -117t-139 -42h-188v238h-222v-238h-78zM450 63h106q51 0 79 20.5t28 69.5q0 48 -28.5 66.5t-77.5 18.5h-107v-175z" />
    <glyph glyph-name="afii10108" unicode="&#x45b;" horiz-adv-x="545" 
d="M72 0v554h-78v58h78v55h77v-55h149v-58h-149v-147q29 21 66 35.5t83 14.5q97 0 137.5 -49t40.5 -143v-265h-78v266q0 66 -27 97.5t-87 31.5q-38 0 -73.5 -17.5t-61.5 -36.5v-341h-77z" />
    <glyph glyph-name="afii10109" unicode="&#x45c;" horiz-adv-x="471" 
d="M72 0v477h77v-196h53q12 0 20.5 4t16.5 14.5t17.5 29.5t23.5 49q14 31 27 50.5t27.5 30.5t31.5 14.5t39 3.5h47v-63h-29q-27 0 -45.5 -12.5t-36.5 -52.5q-20 -42 -31 -64t-22 -32l178 -253h-92l-149 218h-76v-218h-77zM202 544l-37 37l167 139l51 -52z" />
    <glyph glyph-name="afii10110" unicode="&#x45e;" horiz-adv-x="453" 
d="M25 -126q11 -4 27.5 -7.5t33.5 -3.5q23 0 36 11t27 43l39 95l-188 465h88l141 -367l141 367h83l-244 -603q-18 -44 -50.5 -60t-67.5 -16q-23 0 -48.5 6.5t-39.5 12.5zM130 701q4 -23 15 -39t25 -25.5t29 -14t28 -4.5t28 4.5t29.5 14t25.5 25.5t15 39h64q-1 -39 -17 -67
t-39.5 -45.5t-52 -26t-53.5 -8.5q-26 0 -54 8.5t-51.5 26t-39 45.5t-16.5 67h64z" />
    <glyph glyph-name="afii10193" unicode="&#x45f;" horiz-adv-x="534" 
d="M72 0v477h78v-417h234v417h78v-477h-157v-108h-76v108h-157z" />
    <glyph glyph-name="afii10050" unicode="&#x490;" horiz-adv-x="479" 
d="M81 0v667h313v82h76v-151h-309v-598h-80z" />
    <glyph glyph-name="afii10098" unicode="&#x491;" horiz-adv-x="381" 
d="M72 0v477h235v65h74v-128h-231v-414h-78z" />
    <glyph glyph-name="Wgrave" unicode="&#x1e80;" horiz-adv-x="751" 
d="M168 0l-168 667h81l123 -471l150 471h42l152 -471l121 471h82l-168 -667h-48l-160 497l-159 -497h-48zM266 834l51 52l167 -139l-36 -37z" />
    <glyph glyph-name="wgrave" unicode="&#x1e81;" horiz-adv-x="661" 
d="M158 0l-158 477h83l108 -359l117 359h44l118 -359l108 359h83l-158 -477h-60l-113 344l-112 -344h-60zM221 668l51 52l167 -139l-36 -37z" />
    <glyph glyph-name="Wacute" unicode="&#x1e82;" horiz-adv-x="751" 
d="M168 0l-168 667h81l123 -471l150 471h42l152 -471l121 471h82l-168 -667h-48l-160 497l-159 -497h-48zM313 710l-37 37l167 139l51 -52z" />
    <glyph glyph-name="wacute" unicode="&#x1e83;" horiz-adv-x="661" 
d="M158 0l-158 477h83l108 -359l117 359h44l118 -359l108 359h83l-158 -477h-60l-113 344l-112 -344h-60zM258 544l-37 37l167 139l51 -52z" />
    <glyph glyph-name="Wdieresis" unicode="&#x1e84;" horiz-adv-x="751" 
d="M168 0l-168 667h81l123 -471l150 471h42l152 -471l121 471h82l-168 -667h-48l-160 497l-159 -497h-48zM461 756q-20 0 -34.5 16.5t-14.5 39.5t14.5 39t34.5 16q21 0 35.5 -16t14.5 -39t-14.5 -39.5t-35.5 -16.5zM289 756q-21 0 -35.5 16.5t-14.5 39.5t14.5 39t35.5 16
q20 0 34.5 -16t14.5 -39t-14.5 -39.5t-34.5 -16.5z" />
    <glyph glyph-name="wdieresis" unicode="&#x1e85;" horiz-adv-x="661" 
d="M158 0l-158 477h83l108 -359l117 359h44l118 -359l108 359h83l-158 -477h-60l-113 344l-112 -344h-60zM416 590q-20 0 -34.5 16.5t-14.5 39.5t14.5 39t34.5 16q21 0 35.5 -16t14.5 -39t-14.5 -39.5t-35.5 -16.5zM244 590q-21 0 -35.5 16.5t-14.5 39.5t14.5 39t35.5 16
q20 0 34.5 -16t14.5 -39t-14.5 -39.5t-34.5 -16.5z" />
    <glyph glyph-name="Ygrave" unicode="&#x1ef2;" horiz-adv-x="543" 
d="M227 0v320l-227 347h91l178 -270l187 270h87l-236 -346v-321h-80zM159 834l51 52l167 -139l-36 -37z" />
    <glyph glyph-name="ygrave" unicode="&#x1ef3;" horiz-adv-x="453" 
d="M25 -126q11 -4 27.5 -7.5t33.5 -3.5q23 0 36 11t27 43l39 95l-188 465h88l141 -367l141 367h83l-244 -603q-18 -44 -50.5 -60t-67.5 -16q-23 0 -48.5 6.5t-39.5 12.5zM101 668l51 52l167 -139l-36 -37z" />
    <glyph glyph-name="endash" unicode="&#x2013;" horiz-adv-x="553" 
d="M0 226v72h553v-72h-553z" />
    <glyph glyph-name="emdash" unicode="&#x2014;" horiz-adv-x="1106" 
d="M0 226v72h1106v-72h-1106z" />
    <glyph glyph-name="afii00208" unicode="&#x2015;" horiz-adv-x="1106" 
d="M0 226v72h1106v-72h-1106z" />
    <glyph glyph-name="quoteleft" unicode="&#x2018;" horiz-adv-x="192" 
d="M176 461q-24 9 -47.5 23t-43 32t-31.5 40.5t-12 49.5q0 29 14 48t41 19q26 0 39.5 -19t13.5 -45q0 -27 -11.5 -42.5t-21.5 -20.5q10 -17 31.5 -31.5t39.5 -21.5z" />
    <glyph glyph-name="quoteright" unicode="&#x2019;" horiz-adv-x="192" 
d="M4 493q18 7 39.5 21.5t31.5 31.5q-10 5 -21.5 20.5t-11.5 42.5q0 26 13.5 45t39.5 19q27 0 41 -19t14 -48q0 -27 -12 -49.5t-31.5 -40.5t-43 -32t-47.5 -23z" />
    <glyph glyph-name="quotesinglbase" unicode="&#x201a;" horiz-adv-x="192" 
d="M4 -38q18 7 39.5 22t31.5 32q-10 5 -21.5 20.5t-11.5 42.5q0 26 13.5 44.5t39.5 18.5q27 0 41 -19t14 -48q0 -26 -12 -48.5t-31.5 -41t-43 -32.5t-47.5 -23z" />
    <glyph glyph-name="quotedblleft" unicode="&#x201c;" horiz-adv-x="379" 
d="M363 461q-24 9 -47.5 23t-43 32t-31.5 40.5t-12 49.5q0 29 14.5 48t41.5 19q26 0 39.5 -19t13.5 -45q0 -27 -12 -42.5t-21 -20.5q10 -17 31 -31.5t39 -21.5zM176 461q-24 9 -47.5 23t-43 32t-31.5 40.5t-12 49.5q0 29 14 48t41 19q26 0 39.5 -19t13.5 -45
q0 -27 -11.5 -42.5t-21.5 -20.5q10 -17 31.5 -31.5t39.5 -21.5z" />
    <glyph glyph-name="quotedblright" unicode="&#x201d;" horiz-adv-x="379" 
d="M191 493q19 7 40 21.5t31 31.5q-9 5 -21 20.5t-12 42.5q0 26 13.5 45t39.5 19q27 0 41 -19t14 -48q0 -27 -12 -49.5t-31 -40.5t-42.5 -32t-47.5 -23zM4 493q18 7 39.5 21.5t31.5 31.5q-10 5 -21.5 20.5t-11.5 42.5q0 26 13.5 45t39.5 19q27 0 41 -19t14 -48
q0 -27 -12 -49.5t-31.5 -40.5t-43 -32t-47.5 -23z" />
    <glyph glyph-name="quotedblbase" unicode="&#x201e;" horiz-adv-x="379" 
d="M191 -38q19 7 40 22t31 32q-9 5 -21 20.5t-12 42.5q0 26 13.5 44.5t39.5 18.5q27 0 41 -19t14 -48q0 -26 -12 -48.5t-31 -41t-42.5 -32.5t-47.5 -23zM4 -38q18 7 39.5 22t31.5 32q-10 5 -21.5 20.5t-11.5 42.5q0 26 13.5 44.5t39.5 18.5q27 0 41 -19t14 -48
q0 -26 -12 -48.5t-31.5 -41t-43 -32.5t-47.5 -23z" />
    <glyph glyph-name="dagger" unicode="&#x2020;" horiz-adv-x="446" 
d="M188 -146v516h-148v72h148v225h72v-225h146v-72h-146v-516h-72z" />
    <glyph glyph-name="daggerdbl" unicode="&#x2021;" horiz-adv-x="446" 
d="M188 -146v225h-148v71h148v220h-148v72h148v225h72v-225h146v-72h-146v-220h146v-71h-146v-225h-72z" />
    <glyph glyph-name="bullet" unicode="&#x2022;" horiz-adv-x="487" 
d="M168 209q-35 15 -61 41t-41.5 61t-15.5 76q0 40 15 75.5t41 61.5t61.5 41.5t76.5 15.5q40 0 75 -15.5t61.5 -41.5t41.5 -61.5t15 -75.5t-15 -75t-41.5 -61.5t-61.5 -41.5t-75 -15t-76 15z" />
    <glyph glyph-name="ellipsis" unicode="&#x2026;" horiz-adv-x="555" 
d="M463 -11q-23 0 -38.5 17.5t-15.5 42.5t15.5 42.5t38.5 17.5q22 0 38 -17.5t16 -42.5t-16 -42.5t-38 -17.5zM278 -11q-23 0 -38.5 17.5t-15.5 42.5t15.5 42.5t38.5 17.5q22 0 37.5 -17.5t15.5 -42.5t-15.5 -42.5t-37.5 -17.5zM92 -11q-23 0 -38.5 17.5t-15.5 42.5
t15.5 42.5t38.5 17.5t38.5 -17.5t15.5 -42.5t-15.5 -42.5t-38.5 -17.5z" />
    <glyph glyph-name="perthousand" unicode="&#x2030;" horiz-adv-x="1100" 
d="M859 5q-27 12 -47.5 33t-32.5 48.5t-12 59.5q0 31 12 59t32.5 49t48 33t59.5 12t60 -12t48.5 -33t32.5 -49t12 -59q0 -32 -12 -59.5t-32.5 -48.5t-48.5 -33t-60 -12t-60 12zM505 5q-27 12 -47.5 33t-32.5 48.5t-12 59.5q0 31 12 59t32.5 49t48 33t59.5 12t60 -12
t48.5 -33t32.5 -49t12 -59q0 -32 -12 -59.5t-32.5 -48.5t-48.5 -33t-60 -12t-60 12zM130 379q-27 12 -47.5 33t-32.5 48.5t-12 59.5q0 31 12 59t32.5 49t48 33t59.5 12t60 -12t48.5 -33t32.5 -49t12 -59q0 -32 -12 -59.5t-32.5 -48.5t-48.5 -33t-60 -12t-60 12zM79 -7
l-49 52l634 626l47 -48zM856 83q12 -12 28 -19.5t34 -7.5t34 7.5t28 20t19 29t7 34.5t-7 34.5t-19 29t-28 20t-34 7.5t-34 -7.5t-27.5 -20t-18.5 -29t-7 -34.5t7 -34.5t18 -29.5zM502 83q12 -12 28 -19.5t34 -7.5t34 7.5t28 20t19 29t7 34.5t-7 34.5t-19 29t-28 20t-34 7.5
t-34 -7.5t-27.5 -20t-18.5 -29t-7 -34.5t7 -34.5t18 -29.5zM127 457q12 -12 28 -19.5t34 -7.5t34 7.5t28 20t19 29t7 34.5t-7 34.5t-19 29t-28 20t-34 7.5t-34 -7.5t-27.5 -20t-18.5 -29t-7 -34.5t7 -34.5t18 -29.5z" />
    <glyph glyph-name="guilsinglleft" unicode="&#x2039;" horiz-adv-x="299" 
d="M15 250l194 204l52 -39l-145 -160l159 -157l-48 -44z" />
    <glyph glyph-name="guilsinglright" unicode="&#x203a;" horiz-adv-x="299" 
d="M24 98l159 157l-145 160l52 39l194 -204l-212 -196z" />
    <glyph glyph-name="fraction" unicode="&#x2044;" horiz-adv-x="222" 
d="M-201 -16l-38 44l638 642l44 -46z" />
    <glyph glyph-name="zerosuperior" unicode="&#x2070;" 
d="M152 332q-69 0 -103.5 48t-34.5 123q0 35 8.5 66t26 54.5t43 37t60.5 13.5q34 0 60 -14.5t43.5 -38.5t26 -55t8.5 -63q0 -37 -9 -68t-26 -54t-43 -36t-60 -13zM94 419q9 -17 23.5 -27.5t34.5 -10.5t34.5 10.5t23.5 27.5t13.5 39t4.5 46q0 23 -4.5 45t-13.5 39t-23.5 27
t-34.5 10t-34.5 -10t-23.5 -27t-13.5 -39t-4.5 -45q0 -24 4.5 -46t13.5 -39z" />
    <glyph glyph-name="foursuperior" unicode="&#x2074;" 
d="M26 424v47l161 194h48v-197h41v-44h-41v-87h-61v87h-148zM85 468h89v111z" />
    <glyph glyph-name="fivesuperior" unicode="&#x2075;" 
d="M69 418q9 -14 28 -24.5t43 -10.5q29 0 46.5 14.5t17.5 44.5q0 39 -27.5 54t-84.5 15h-38v154h190v-50h-136v-56h4q33 0 61 -5.5t49 -18.5t32.5 -34.5t11.5 -52.5q0 -29 -10 -51t-27 -36.5t-39 -21.5t-46 -7q-36 0 -65 12.5t-44 38.5z" />
    <glyph glyph-name="sixsuperior" unicode="&#x2076;" 
d="M233 628q-42 -8 -76.5 -25t-57.5 -52q9 8 26 12t30 4q51 0 79.5 -33t28.5 -81q0 -26 -8.5 -48t-24 -38t-37 -25.5t-48.5 -9.5q-32 0 -54.5 12t-36.5 31.5t-21 44.5t-7 51q0 41 14.5 75.5t40.5 61t61.5 44t78.5 24.5zM144 519q-29 0 -54 -14q-3 -14 -3 -33q0 -15 3 -31.5
t9.5 -29.5t18 -21.5t29.5 -8.5q23 0 38.5 20t15.5 47q0 29 -13 50t-44 21z" />
    <glyph glyph-name="sevensuperior" unicode="&#x2077;" 
d="M86 336l125 277h-183v52h252v-38l-129 -291h-65z" />
    <glyph glyph-name="eightsuperior" unicode="&#x2078;" 
d="M38 473q11 21 34 34q-38 30 -38 74q0 22 10 39t26.5 29t37 18t41.5 6t41.5 -6t36.5 -17.5t26 -28.5t10 -38q0 -48 -37 -76q22 -13 32 -33.5t10 -42.5q0 -25 -10.5 -43.5t-27 -31t-38 -18.5t-43.5 -6q-23 0 -45 6t-39 18.5t-27 31t-10 42.5q0 23 10 43zM90 431
q0 -26 17.5 -37.5t41.5 -11.5q23 0 40 11t17 37q0 25 -17 39.5t-41 14.5q-23 0 -40.5 -14.5t-17.5 -38.5zM96 581q0 -24 15 -36t37 -12q23 0 38 12t15 36q0 23 -15 33.5t-37 10.5t-37.5 -11t-15.5 -33z" />
    <glyph glyph-name="ninesuperior" unicode="&#x2079;" 
d="M59 373q42 8 78 27t55 51q-14 -8 -27.5 -10.5t-26.5 -2.5q-50 0 -79.5 33t-29.5 84q0 24 8.5 45.5t24.5 37.5t37 25.5t47 9.5q32 0 54.5 -11.5t37 -30.5t21.5 -44.5t7 -52.5q0 -42 -14.5 -78t-40.5 -63t-61.5 -44.5t-78.5 -24.5zM152 486q25 0 50 13q1 8 1.5 16t0.5 17
q0 16 -3 32.5t-9.5 29.5t-18 21.5t-28.5 8.5q-23 0 -38.5 -20t-15.5 -47q0 -31 13.5 -51t47.5 -20z" />
    <glyph glyph-name="zeroinferior" unicode="&#x2080;" 
d="M152 -3q-69 0 -103.5 48t-34.5 123q0 35 8.5 66t26 54.5t43 37t60.5 13.5q34 0 60 -14.5t43.5 -38.5t26 -55t8.5 -63q0 -37 -9 -68t-26 -54t-43 -36t-60 -13zM94 84q9 -17 23.5 -27.5t34.5 -10.5t34.5 10.5t23.5 27.5t13.5 39t4.5 46q0 23 -4.5 45t-13.5 39t-23.5 27
t-34.5 10t-34.5 -10t-23.5 -27t-13.5 -39t-4.5 -45q0 -24 4.5 -46t13.5 -39z" />
    <glyph glyph-name="oneinferior" unicode="&#x2081;" 
d="M137 2v262l-68 -39l-27 48l106 61h50v-332h-61z" />
    <glyph glyph-name="twoinferior" unicode="&#x2082;" 
d="M41 2v36q30 32 56 59.5t47 52.5q25 30 37 49.5t12 41.5t-12.5 33t-31.5 11q-20 0 -37 -10.5t-35 -39.5l-50 27q23 38 51 57.5t73 19.5q48 0 77 -25.5t29 -67.5q0 -34 -17.5 -63t-39.5 -55q-17 -19 -34 -37t-34 -37h133v-52h-224z" />
    <glyph glyph-name="threeinferior" unicode="&#x2083;" 
d="M74 93q16 -26 34.5 -35.5t36.5 -9.5q26 0 44.5 14t18.5 37q0 24 -20 37t-55 15v45q32 2 50.5 14.5t18.5 32.5q0 19 -15.5 31t-37.5 12q-42 0 -64 -43l-49 28q20 35 51.5 51t65.5 16q21 0 41 -6t35.5 -18t25.5 -29t10 -39q0 -23 -10.5 -41t-28.5 -30q20 -11 32 -28.5
t12 -46.5q0 -26 -11 -45t-28.5 -32t-40 -19.5t-44.5 -6.5q-34 0 -66 15.5t-55 52.5z" />
    <glyph glyph-name="fourinferior" unicode="&#x2084;" 
d="M26 89v47l161 194h48v-197h41v-44h-41v-87h-61v87h-148zM85 133h89v111z" />
    <glyph glyph-name="fiveinferior" unicode="&#x2085;" 
d="M69 83q9 -14 28 -24.5t43 -10.5q29 0 46.5 14.5t17.5 44.5q0 39 -27.5 54t-84.5 15h-38v154h190v-50h-136v-56h4q33 0 61 -5.5t49 -18.5t32.5 -34.5t11.5 -52.5q0 -29 -10 -51t-27 -36.5t-39 -21.5t-46 -7q-36 0 -65 12.5t-44 38.5z" />
    <glyph glyph-name="sixinferior" unicode="&#x2086;" 
d="M233 293q-42 -8 -76.5 -25t-57.5 -52q9 8 26 12t30 4q51 0 79.5 -33t28.5 -81q0 -26 -8.5 -48t-24 -38t-37 -25.5t-48.5 -9.5q-32 0 -54.5 12t-36.5 31.5t-21 44.5t-7 51q0 41 14.5 75.5t40.5 61t61.5 44t78.5 24.5zM144 184q-29 0 -54 -14q-3 -14 -3 -33q0 -15 3 -31.5
t9.5 -29.5t18 -21.5t29.5 -8.5q23 0 38.5 20t15.5 47q0 29 -13 50t-44 21z" />
    <glyph glyph-name="seveninferior" unicode="&#x2087;" 
d="M86 2l125 277h-183v52h252v-38l-129 -291h-65z" />
    <glyph glyph-name="eightinferior" unicode="&#x2088;" 
d="M38 138q11 21 34 34q-38 30 -38 74q0 22 10 39t26.5 29t37 18t41.5 6t41.5 -6t36.5 -17.5t26 -28.5t10 -38q0 -48 -37 -76q22 -13 32 -33.5t10 -42.5q0 -25 -10.5 -43.5t-27 -31t-38 -18.5t-43.5 -6q-23 0 -45 6t-39 18.5t-27 31t-10 42.5q0 23 10 43zM90 96
q0 -26 17.5 -37.5t41.5 -11.5q23 0 40 11t17 37q0 25 -17 39.5t-41 14.5q-23 0 -40.5 -14.5t-17.5 -38.5zM96 246q0 -24 15 -36t37 -12q23 0 38 12t15 36q0 23 -15 33.5t-37 10.5t-37.5 -11t-15.5 -33z" />
    <glyph glyph-name="nineinferior" unicode="&#x2089;" 
d="M59 38q42 8 78 27t55 51q-14 -8 -27.5 -10.5t-26.5 -2.5q-50 0 -79.5 33t-29.5 84q0 24 8.5 45.5t24.5 37.5t37 25.5t47 9.5q32 0 54.5 -11.5t37 -30.5t21.5 -44.5t7 -52.5q0 -42 -14.5 -78t-40.5 -63t-61.5 -44.5t-78.5 -24.5zM152 151q25 0 50 13q1 8 1.5 16t0.5 17
q0 16 -3 32.5t-9.5 29.5t-18 21.5t-28.5 8.5q-23 0 -38.5 -20t-15.5 -47q0 -31 13.5 -51t47.5 -20z" />
    <glyph glyph-name="Euro" unicode="&#x20ac;" horiz-adv-x="540" 
d="M12 215v68h80q-1 11 -1 21v21v24t1 23h-80v69h86q33 232 214 232q40 0 70 -8.5t52.5 -24.5t38.5 -39t29 -52l-73 -31q-15 34 -41.5 58.5t-75.5 24.5q-60 0 -90 -39.5t-40 -120.5h163v-69h-169q0 -11 -0.5 -22.5t-0.5 -24.5q0 -11 0.5 -21t0.5 -21h169v-68h-162
q14 -84 48.5 -119.5t89.5 -35.5q50 0 75.5 23.5t46.5 65.5l61 -39q-13 -26 -29 -48.5t-37.5 -38.5t-50 -25t-67.5 -9q-90 0 -147.5 53.5t-74.5 172.5h-86z" />
    <glyph glyph-name="afii61289" unicode="&#x2113;" horiz-adv-x="456" 
d="M180 289q54 60 85.5 123.5t31.5 132.5q0 48 -16 67.5t-38 19.5q-26 0 -44.5 -33t-18.5 -109v-201zM180 190q0 -41 6 -66.5t16.5 -39.5t25 -19.5t31.5 -5.5q32 0 61.5 16.5t45.5 39.5l19.5 -19.5t20.5 -18.5q-27 -40 -65.5 -63t-90.5 -23q-70 0 -108 39.5t-38 127.5
q-13 -10 -24.5 -18t-24.5 -17q-5 11 -11.5 22t-13.5 22q19 13 37 27.5t36 30.5v212q0 71 9.5 119.5t28 78t45 42.5t61.5 13q51 0 84 -37.5t33 -106.5q0 -91 -48 -172.5t-136 -163.5v-20z" />
    <glyph glyph-name="afii61352" unicode="&#x2116;" horiz-adv-x="1010" 
d="M81 0v667h81l336 -497v497h79v-667h-59l-358 529v-529h-79zM742 302q-31 17 -52 44t-31.5 61.5t-10.5 70.5q0 35 10.5 69t31.5 60.5t52.5 43t73.5 16.5t74 -16.5t53 -43.5t31.5 -61t10.5 -70q0 -35 -10.5 -69t-31.5 -61t-53 -43.5t-74 -16.5t-74 16zM744 388
q12 -18 30 -29t42 -11q25 0 43 10.5t30 28.5t18 41t6 49q0 25 -6 48t-18 41t-30 28.5t-43 10.5t-43 -10.5t-30 -28t-17.5 -40.5t-5.5 -48t6 -48.5t18 -41.5z" />
    <glyph glyph-name="trademark" unicode="&#x2122;" horiz-adv-x="620" 
d="M280 380v287h56l90 -200l84 200h55v-287h-56v178l-75 -180h-16l-82 181v-179h-56zM99 380v237h-80v50h215v-50h-80v-237h-55z" />
    <glyph glyph-name="uni2126" unicode="&#x2126;" horiz-adv-x="692" 
d="M51 0v69h137q-24 20 -48.5 46.5t-44.5 61t-32.5 77.5t-12.5 96q0 69 20.5 129t59 104.5t93.5 70.5t123 26q67 0 121 -24t91.5 -66t57.5 -100t20 -127q0 -54 -12 -99t-31.5 -81.5t-44.5 -64.5t-50 -49h139v-69h-231v69q29 19 55.5 48t47 65.5t32.5 80t12 91.5
q0 58 -14 105t-40.5 80.5t-65 51.5t-87.5 18t-88 -19t-66.5 -53.5t-42.5 -82.5t-15 -106q0 -48 13.5 -90t35 -77.5t48.5 -63.5t54 -48v-69h-234z" />
    <glyph glyph-name="estimated" unicode="&#x212e;" horiz-adv-x="647" 
d="M137 118q0 -10 4 -18.5t10 -15.5q0 -2 2 -2q33 -32 76 -49t92 -17q57 0 104.5 23t82.5 63h42q-39 -47 -98.5 -74.5t-130.5 -27.5q-60 0 -113 20.5t-93 56t-63 83.5t-23 102t23 101.5t63 83t93 56t113 20.5q61 0 114.5 -21t92.5 -57.5t61.5 -85.5t22.5 -104h-469
q-6 0 -6 -8v-129zM137 275q0 -7 6 -7h354q7 0 7 7v131q0 9 -3.5 18t-8.5 16q-35 34 -79 51.5t-92 17.5q-99 0 -170 -69q-6 -7 -10 -16t-4 -18v-131z" />
    <glyph glyph-name="onethird" unicode="&#x2153;" horiz-adv-x="740" 
d="M130 337v262l-68 -39l-27 48l106 61h50v-332h-61zM59 -16l-38 44l638 642l44 -46zM476 94q16 -26 34.5 -35.5t36.5 -9.5q26 0 44.5 14t18.5 37q0 24 -20 37t-55 15v45q32 2 50.5 14.5t18.5 32.5q0 19 -15.5 31t-37.5 12q-42 0 -64 -43l-49 28q20 35 51.5 51t65.5 16
q21 0 41 -6t35.5 -18t25.5 -29t10 -39q0 -23 -10.5 -41t-28.5 -30q20 -11 32 -28.5t12 -46.5q0 -26 -11 -45t-28.5 -32t-40 -19.5t-44.5 -6.5q-34 0 -66 15.5t-55 52.5z" />
    <glyph glyph-name="twothirds" unicode="&#x2154;" horiz-adv-x="740" 
d="M41 336v36q30 32 56 59.5t47 52.5q25 30 37 49.5t12 41.5t-12.5 33t-31.5 11q-20 0 -37 -10.5t-35 -39.5l-50 27q23 38 51 57.5t73 19.5q48 0 77 -25.5t29 -67.5q0 -34 -17.5 -63t-39.5 -55q-17 -19 -34 -37t-34 -37h133v-52h-224zM474 94q16 -26 34.5 -35.5t36.5 -9.5
q26 0 44.5 14t18.5 37q0 24 -20 37t-55 15v45q32 2 50.5 14.5t18.5 32.5q0 19 -15.5 31t-37.5 12q-42 0 -64 -43l-49 28q20 35 51.5 51t65.5 16q21 0 41 -6t35.5 -18t25.5 -29t10 -39q0 -23 -10.5 -41t-28.5 -30q20 -11 32 -28.5t12 -46.5q0 -26 -11 -45t-28.5 -32
t-40 -19.5t-44.5 -6.5q-34 0 -66 15.5t-55 52.5zM59 -16l-38 44l638 642l44 -46z" />
    <glyph glyph-name="onefifth" unicode="&#x2155;" horiz-adv-x="740" 
d="M130 337v262l-68 -39l-27 48l106 61h50v-332h-61zM59 -16l-38 44l638 642l44 -46zM469 84q9 -14 28 -24.5t43 -10.5q29 0 46.5 14.5t17.5 44.5q0 39 -27.5 54t-84.5 15h-38v154h190v-50h-136v-56h4q33 0 61 -5.5t49 -18.5t32.5 -34.5t11.5 -52.5q0 -29 -10 -51t-27 -36.5
t-39 -21.5t-46 -7q-36 0 -65 12.5t-44 38.5z" />
    <glyph glyph-name="twofifths" unicode="&#x2156;" horiz-adv-x="740" 
d="M59 -16l-38 44l638 642l44 -46zM41 336v36q30 32 56 59.5t47 52.5q25 30 37 49.5t12 41.5t-12.5 33t-31.5 11q-20 0 -37 -10.5t-35 -39.5l-50 27q23 38 51 57.5t73 19.5q48 0 77 -25.5t29 -67.5q0 -34 -17.5 -63t-39.5 -55q-17 -19 -34 -37t-34 -37h133v-52h-224zM480 84
q9 -14 28 -24.5t43 -10.5q29 0 46.5 14.5t17.5 44.5q0 39 -27.5 54t-84.5 15h-38v154h190v-50h-136v-56h4q33 0 61 -5.5t49 -18.5t32.5 -34.5t11.5 -52.5q0 -29 -10 -51t-27 -36.5t-39 -21.5t-46 -7q-36 0 -65 12.5t-44 38.5z" />
    <glyph glyph-name="threefifths" unicode="&#x2157;" horiz-adv-x="740" 
d="M59 -16l-38 44l638 642l44 -46zM74 428q16 -26 34.5 -35.5t36.5 -9.5q26 0 44.5 14t18.5 37q0 24 -20 37t-55 15v45q32 2 50.5 14.5t18.5 32.5q0 19 -15.5 31t-37.5 12q-42 0 -64 -43l-49 28q20 35 51.5 51t65.5 16q21 0 41 -6t35.5 -18t25.5 -29t10 -39q0 -23 -10.5 -41
t-28.5 -30q20 -11 32 -28.5t12 -46.5q0 -26 -11 -45t-28.5 -32t-40 -19.5t-44.5 -6.5q-34 0 -66 15.5t-55 52.5zM479 84q9 -14 28 -24.5t43 -10.5q29 0 46.5 14.5t17.5 44.5q0 39 -27.5 54t-84.5 15h-38v154h190v-50h-136v-56h4q33 0 61 -5.5t49 -18.5t32.5 -34.5
t11.5 -52.5q0 -29 -10 -51t-27 -36.5t-39 -21.5t-46 -7q-36 0 -65 12.5t-44 38.5z" />
    <glyph glyph-name="fourfifths" unicode="&#x2158;" horiz-adv-x="740" 
d="M59 -16l-38 44l638 642l44 -46zM41 424v47l161 194h48v-197h41v-44h-41v-87h-61v87h-148zM100 468h89v111zM481 84q9 -14 28 -24.5t43 -10.5q29 0 46.5 14.5t17.5 44.5q0 39 -27.5 54t-84.5 15h-38v154h190v-50h-136v-56h4q33 0 61 -5.5t49 -18.5t32.5 -34.5t11.5 -52.5
q0 -29 -10 -51t-27 -36.5t-39 -21.5t-46 -7q-36 0 -65 12.5t-44 38.5z" />
    <glyph glyph-name="onesixth" unicode="&#x2159;" horiz-adv-x="740" 
d="M69 -16l-38 44l638 642l44 -46zM137 337v262l-68 -39l-27 48l106 61h50v-332h-61zM650 294q-42 -8 -76.5 -25t-57.5 -52q9 8 26 12t30 4q51 0 79.5 -33t28.5 -81q0 -26 -8.5 -48t-24 -38t-37 -25.5t-48.5 -9.5q-32 0 -54.5 12t-36.5 31.5t-21 44.5t-7 51q0 41 14.5 75.5
t40.5 61t61.5 44t78.5 24.5zM561 185q-29 0 -54 -14q-3 -14 -3 -33q0 -15 3 -31.5t9.5 -29.5t18 -21.5t29.5 -8.5q23 0 38.5 20t15.5 47q0 29 -13 50t-44 21z" />
    <glyph glyph-name="fivesixths" unicode="&#x215a;" horiz-adv-x="740" 
d="M89 418q9 -14 28 -24.5t43 -10.5q29 0 46.5 14.5t17.5 44.5q0 39 -27.5 54t-84.5 15h-38v154h190v-50h-136v-56h4q33 0 61 -5.5t49 -18.5t32.5 -34.5t11.5 -52.5q0 -29 -10 -51t-27 -36.5t-39 -21.5t-46 -7q-36 0 -65 12.5t-44 38.5zM69 -16l-38 44l638 642l44 -46z
M647 294q-42 -8 -76.5 -25t-57.5 -52q9 8 26 12t30 4q51 0 79.5 -33t28.5 -81q0 -26 -8.5 -48t-24 -38t-37 -25.5t-48.5 -9.5q-32 0 -54.5 12t-36.5 31.5t-21 44.5t-7 51q0 41 14.5 75.5t40.5 61t61.5 44t78.5 24.5zM558 185q-29 0 -54 -14q-3 -14 -3 -33q0 -15 3 -31.5
t9.5 -29.5t18 -21.5t29.5 -8.5q23 0 38.5 20t15.5 47q0 29 -13 50t-44 21z" />
    <glyph glyph-name="oneeighth" unicode="&#x215b;" horiz-adv-x="740" 
d="M130 337v262l-68 -39l-27 48l106 61h50v-332h-61zM59 -16l-38 44l638 642l44 -46zM461 139q11 21 34 34q-38 30 -38 74q0 22 10 39t26.5 29t37 18t41.5 6t41.5 -6t36.5 -17.5t26 -28.5t10 -38q0 -48 -37 -76q22 -13 32 -33.5t10 -42.5q0 -25 -10.5 -43.5t-27 -31
t-38 -18.5t-43.5 -6q-23 0 -45 6t-39 18.5t-27 31t-10 42.5q0 23 10 43zM513 97q0 -26 17.5 -37.5t41.5 -11.5q23 0 40 11t17 37q0 25 -17 39.5t-41 14.5q-23 0 -40.5 -14.5t-17.5 -38.5zM519 247q0 -24 15 -36t37 -12q23 0 38 12t15 36q0 23 -15 33.5t-37 10.5t-37.5 -11
t-15.5 -33z" />
    <glyph glyph-name="threeeighths" unicode="&#x215c;" horiz-adv-x="740" 
d="M74 428q16 -26 34.5 -35.5t36.5 -9.5q26 0 44.5 14t18.5 37q0 24 -20 37t-55 15v45q32 2 50.5 14.5t18.5 32.5q0 19 -15.5 31t-37.5 12q-42 0 -64 -43l-49 28q20 35 51.5 51t65.5 16q21 0 41 -6t35.5 -18t25.5 -29t10 -39q0 -23 -10.5 -41t-28.5 -30q20 -11 32 -28.5
t12 -46.5q0 -26 -11 -45t-28.5 -32t-40 -19.5t-44.5 -6.5q-34 0 -66 15.5t-55 52.5zM59 -16l-38 44l638 642l44 -46zM459 139q11 21 34 34q-38 30 -38 74q0 22 10 39t26.5 29t37 18t41.5 6t41.5 -6t36.5 -17.5t26 -28.5t10 -38q0 -48 -37 -76q22 -13 32 -33.5t10 -42.5
q0 -25 -10.5 -43.5t-27 -31t-38 -18.5t-43.5 -6q-23 0 -45 6t-39 18.5t-27 31t-10 42.5q0 23 10 43zM511 97q0 -26 17.5 -37.5t41.5 -11.5q23 0 40 11t17 37q0 25 -17 39.5t-41 14.5q-23 0 -40.5 -14.5t-17.5 -38.5zM517 247q0 -24 15 -36t37 -12q23 0 38 12t15 36
q0 23 -15 33.5t-37 10.5t-37.5 -11t-15.5 -33z" />
    <glyph glyph-name="fiveeighths" unicode="&#x215d;" horiz-adv-x="740" 
d="M59 -16l-38 44l638 642l44 -46zM99 418q9 -14 28 -24.5t43 -10.5q29 0 46.5 14.5t17.5 44.5q0 39 -27.5 54t-84.5 15h-38v154h190v-50h-136v-56h4q33 0 61 -5.5t49 -18.5t32.5 -34.5t11.5 -52.5q0 -29 -10 -51t-27 -36.5t-39 -21.5t-46 -7q-36 0 -65 12.5t-44 38.5z
M461 139q11 21 34 34q-38 30 -38 74q0 22 10 39t26.5 29t37 18t41.5 6t41.5 -6t36.5 -17.5t26 -28.5t10 -38q0 -48 -37 -76q22 -13 32 -33.5t10 -42.5q0 -25 -10.5 -43.5t-27 -31t-38 -18.5t-43.5 -6q-23 0 -45 6t-39 18.5t-27 31t-10 42.5q0 23 10 43zM513 97
q0 -26 17.5 -37.5t41.5 -11.5q23 0 40 11t17 37q0 25 -17 39.5t-41 14.5q-23 0 -40.5 -14.5t-17.5 -38.5zM519 247q0 -24 15 -36t37 -12q23 0 38 12t15 36q0 23 -15 33.5t-37 10.5t-37.5 -11t-15.5 -33z" />
    <glyph glyph-name="seveneighths" unicode="&#x215e;" horiz-adv-x="740" 
d="M59 -16l-38 44l638 642l44 -46zM106 336l125 277h-183v52h252v-38l-129 -291h-65zM460 139q11 21 34 34q-38 30 -38 74q0 22 10 39t26.5 29t37 18t41.5 6t41.5 -6t36.5 -17.5t26 -28.5t10 -38q0 -48 -37 -76q22 -13 32 -33.5t10 -42.5q0 -25 -10.5 -43.5t-27 -31
t-38 -18.5t-43.5 -6q-23 0 -45 6t-39 18.5t-27 31t-10 42.5q0 23 10 43zM512 97q0 -26 17.5 -37.5t41.5 -11.5q23 0 40 11t17 37q0 25 -17 39.5t-41 14.5q-23 0 -40.5 -14.5t-17.5 -38.5zM518 247q0 -24 15 -36t37 -12q23 0 38 12t15 36q0 23 -15 33.5t-37 10.5t-37.5 -11
t-15.5 -33z" />
    <glyph glyph-name="partialdiff" unicode="&#x2202;" horiz-adv-x="537" 
d="M137 673q66 -6 127 -32.5t109 -71.5q54 -51 86 -126t32 -166q0 -72 -18 -126t-49 -90t-72.5 -54t-89.5 -18q-47 0 -87 17t-68.5 49t-44.5 79t-16 107q0 58 16 104t44.5 78t69 49t90.5 17q39 0 64.5 -7.5t45.5 -17.5q-15 30 -41.5 55.5t-60.5 45t-73 32.5t-79 19zM408 344
q-7 31 -13 49q-28 17 -58 26t-69 9q-66 0 -105.5 -48.5t-39.5 -138.5q0 -93 38 -141.5t101 -48.5q30 0 57.5 13.5t48.5 41t34 70t13 100.5q0 38 -7 68z" />
    <glyph glyph-name="Delta" unicode="&#x2206;" horiz-adv-x="608" 
d="M10 0l260 667h58l270 -667h-588zM118 65h368l-189 482z" />
    <glyph glyph-name="product" unicode="&#x220f;" horiz-adv-x="645" 
d="M100 -125v723h-80v69h605v-69h-80v-723h-79v723h-286v-723h-80z" />
    <glyph glyph-name="summation" unicode="&#x2211;" horiz-adv-x="498" 
d="M40 -125v70l253 336l-253 315v71h434v-69h-340l253 -317l-253 -337h342v-69h-436z" />
    <glyph glyph-name="minus" unicode="&#x2212;" horiz-adv-x="540" 
d="M34 297v70h472v-70h-472z" />
    <glyph glyph-name="uni2215" unicode="&#x2215;" horiz-adv-x="480" 
d="M0 13l421 745l59 -33l-419 -748z" />
    <glyph glyph-name="uni2219" unicode="&#x2219;" horiz-adv-x="288" 
d="M144 309q-23 0 -38.5 17.5t-15.5 42.5t15.5 42.5t38.5 17.5t38.5 -17.5t15.5 -42.5t-15.5 -42.5t-38.5 -17.5z" />
    <glyph glyph-name="radical" unicode="&#x221a;" horiz-adv-x="540" 
d="M213 0l-112 237h-74v65h124l89 -197l207 619l68 -21l-239 -703h-63z" />
    <glyph glyph-name="infinity" unicode="&#x221e;" horiz-adv-x="532" 
d="M295 253q-15 19 -30 49q-14 -30 -29.5 -48.5t-31 -29t-31.5 -14t-31 -3.5q-33 0 -56.5 12.5t-39 33.5t-23 48.5t-7.5 57.5q0 75 34.5 113.5t91.5 38.5q18 0 35 -4t32 -14.5t29 -29.5t27 -48q26 55 54 75t72 20q54 0 89.5 -39.5t35.5 -111.5q0 -26 -7 -53t-22.5 -49
t-39 -36t-56.5 -14q-17 0 -33 3.5t-31.5 14t-31.5 28.5zM336 428q-19 -28 -37 -70q9 -19 18 -36t20 -30t23.5 -21t27.5 -8q19 0 31.5 10t20.5 24.5t11.5 31.5t3.5 31q0 45 -20 70.5t-49 25.5q-31 0 -50 -28zM218 330q8 17 13 29q-22 48 -41 72t-45 24q-18 0 -31 -9
t-21.5 -23t-12.5 -31t-4 -33q0 -45 18 -71q19 -25 51 -25q17 0 31 10.5t24.5 25.5t17.5 31z" />
    <glyph glyph-name="integral" unicode="&#x222b;" horiz-adv-x="367" 
d="M11 -126q64 2 98 29.5t34 101.5v474q0 104 53.5 148t160.5 45v-67q-30 0 -54.5 -6t-42 -21t-26.5 -40t-9 -63v-473q0 -104 -53.5 -149.5t-160.5 -45.5v67z" />
    <glyph glyph-name="approxequal" unicode="&#x2248;" horiz-adv-x="540" 
d="M33 424q22 14 55.5 26t66.5 12q30 0 59.5 -5.5t64.5 -14.5q29 -8 53.5 -12.5t48.5 -4.5q28 0 50 8t44 21l32 -57q-20 -14 -53.5 -27t-70.5 -13q-26 0 -55 5t-57 13q-34 9 -60.5 14t-52.5 5q-27 0 -50 -8t-44 -19zM33 201q22 14 55.5 26t66.5 12q30 0 59.5 -5.5
t64.5 -14.5q29 -8 53.5 -12.5t48.5 -4.5q28 0 50 8t44 21l32 -57q-20 -14 -53.5 -27t-70.5 -13q-26 0 -55 5t-57 13q-34 9 -60.5 14t-52.5 5q-27 0 -50 -8.5t-44 -19.5z" />
    <glyph glyph-name="notequal" unicode="&#x2260;" horiz-adv-x="540" 
d="M47 96l46 52h-59v70h120l136 155h-256v69h317l87 100l49 -43l-50 -57h69v-69h-130l-136 -155h266v-70h-328l-84 -95z" />
    <glyph glyph-name="lessequal" unicode="&#x2264;" horiz-adv-x="540" 
d="M31 0v67h478v-67h-478zM54 304v58l411 158l26 -69l-310 -116l323 -125l-28 -72z" />
    <glyph glyph-name="greaterequal" unicode="&#x2265;" horiz-adv-x="540" 
d="M31 0v67h478v-67h-478zM64 138l-28 72l323 125l-310 116l26 69l411 -158v-58z" />
    <glyph glyph-name="lozenge" unicode="&#x25ca;" horiz-adv-x="532" 
d="M265 -16l-210 373l210 363l212 -363zM268 112l132 245l-135 233l-133 -232z" />
    <glyph glyph-name="fi" unicode="&#xf001;" horiz-adv-x="490" 
d="M344 0v477h77v-477h-77zM90 0v414h-70v63h71v35q0 43 13.5 75t36 52.5t52.5 30.5t63 10q55 0 87.5 -15.5t54.5 -34.5l-37 -51q-17 14 -43 27t-61 13q-42 0 -66 -24t-24 -84v-34h114v-63h-113v-414h-78z" />
    <glyph glyph-name="fl" unicode="&#xf002;" horiz-adv-x="519" 
d="M90 0v414h-70v63h70v17q0 49 16 84.5t45 58t68.5 33t86.5 10.5q45 0 84.5 -9t59.5 -17v-654h-78v603q-12 5 -31.5 8t-40.5 3q-27 0 -51 -5.5t-42 -19t-29 -37.5t-11 -61v-14h114v-63h-113v-414h-78z" />
    <glyph glyph-name="oneseventh" unicode="&#xf506;" horiz-adv-x="740" 
d="M69 -16l-38 44l638 642l44 -46zM137 337v262l-68 -39l-27 48l106 61h50v-332h-61zM513 2l125 277h-183v52h252v-38l-129 -291h-65z" />
    <glyph glyph-name="twosevenths" unicode="&#xf507;" horiz-adv-x="740" 
d="M69 -16l-38 44l638 642l44 -46zM41 336v36q30 32 56 59.5t47 52.5q25 30 37 49.5t12 41.5t-12.5 33t-31.5 11q-20 0 -37 -10.5t-35 -39.5l-50 27q23 38 51 57.5t73 19.5q48 0 77 -25.5t29 -67.5q0 -34 -17.5 -63t-39.5 -55q-17 -19 -34 -37t-34 -37h133v-52h-224zM513 2
l125 277h-183v52h252v-38l-129 -291h-65z" />
    <glyph glyph-name="threesevenths" unicode="&#xf508;" horiz-adv-x="740" 
d="M69 -16l-38 44l638 642l44 -46zM74 428q16 -26 34.5 -35.5t36.5 -9.5q26 0 44.5 14t18.5 37q0 24 -20 37t-55 15v45q32 2 50.5 14.5t18.5 32.5q0 19 -15.5 31t-37.5 12q-42 0 -64 -43l-49 28q20 35 51.5 51t65.5 16q21 0 41 -6t35.5 -18t25.5 -29t10 -39q0 -23 -10.5 -41
t-28.5 -30q20 -11 32 -28.5t12 -46.5q0 -26 -11 -45t-28.5 -32t-40 -19.5t-44.5 -6.5q-34 0 -66 15.5t-55 52.5zM513 2l125 277h-183v52h252v-38l-129 -291h-65z" />
    <glyph glyph-name="foursevenths" unicode="&#xf509;" horiz-adv-x="740" 
d="M69 -16l-38 44l638 642l44 -46zM26 424v47l161 194h48v-197h41v-44h-41v-87h-61v87h-148zM85 468h89v111zM513 2l125 277h-183v52h252v-38l-129 -291h-65z" />
    <glyph glyph-name="fivesevenths" unicode="&#xf50a;" horiz-adv-x="740" 
d="M69 -16l-38 44l638 642l44 -46zM69 418q9 -14 28 -24.5t43 -10.5q29 0 46.5 14.5t17.5 44.5q0 39 -27.5 54t-84.5 15h-38v154h190v-50h-136v-56h4q33 0 61 -5.5t49 -18.5t32.5 -34.5t11.5 -52.5q0 -29 -10 -51t-27 -36.5t-39 -21.5t-46 -7q-36 0 -65 12.5t-44 38.5z
M513 2l125 277h-183v52h252v-38l-129 -291h-65z" />
    <glyph glyph-name="sixsevenths" unicode="&#xf50b;" horiz-adv-x="740" 
d="M69 -16l-38 44l638 642l44 -46zM233 628q-42 -8 -76.5 -25t-57.5 -52q9 8 26 12t30 4q51 0 79.5 -33t28.5 -81q0 -26 -8.5 -48t-24 -38t-37 -25.5t-48.5 -9.5q-32 0 -54.5 12t-36.5 31.5t-21 44.5t-7 51q0 41 14.5 75.5t40.5 61t61.5 44t78.5 24.5zM144 519
q-29 0 -54 -14q-3 -14 -3 -33q0 -15 3 -31.5t9.5 -29.5t18 -21.5t29.5 -8.5q23 0 38.5 20t15.5 47q0 29 -13 50t-44 21zM513 2l125 277h-183v52h252v-38l-129 -291h-65z" />
    <glyph glyph-name="oneninth" unicode="&#xf50c;" horiz-adv-x="740" 
d="M69 -16l-38 44l638 642l44 -46zM137 337v262l-68 -39l-27 48l106 61h50v-332h-61zM486 39q42 8 78 27t55 51q-14 -8 -27.5 -10.5t-26.5 -2.5q-50 0 -79.5 33t-29.5 84q0 24 8.5 45.5t24.5 37.5t37 25.5t47 9.5q32 0 54.5 -11.5t37 -30.5t21.5 -44.5t7 -52.5
q0 -42 -14.5 -78t-40.5 -63t-61.5 -44.5t-78.5 -24.5zM579 152q25 0 50 13q1 8 1.5 16t0.5 17q0 16 -3 32.5t-9.5 29.5t-18 21.5t-28.5 8.5q-23 0 -38.5 -20t-15.5 -47q0 -31 13.5 -51t47.5 -20z" />
    <glyph glyph-name="twoninths" unicode="&#xf50d;" horiz-adv-x="740" 
d="M69 -16l-38 44l638 642l44 -46zM41 336v36q30 32 56 59.5t47 52.5q25 30 37 49.5t12 41.5t-12.5 33t-31.5 11q-20 0 -37 -10.5t-35 -39.5l-50 27q23 38 51 57.5t73 19.5q48 0 77 -25.5t29 -67.5q0 -34 -17.5 -63t-39.5 -55q-17 -19 -34 -37t-34 -37h133v-52h-224zM486 39
q42 8 78 27t55 51q-14 -8 -27.5 -10.5t-26.5 -2.5q-50 0 -79.5 33t-29.5 84q0 24 8.5 45.5t24.5 37.5t37 25.5t47 9.5q32 0 54.5 -11.5t37 -30.5t21.5 -44.5t7 -52.5q0 -42 -14.5 -78t-40.5 -63t-61.5 -44.5t-78.5 -24.5zM579 152q25 0 50 13q1 8 1.5 16t0.5 17
q0 16 -3 32.5t-9.5 29.5t-18 21.5t-28.5 8.5q-23 0 -38.5 -20t-15.5 -47q0 -31 13.5 -51t47.5 -20z" />
    <glyph glyph-name="fourninths" unicode="&#xf50e;" horiz-adv-x="740" 
d="M69 -16l-38 44l638 642l44 -46zM26 424v47l161 194h48v-197h41v-44h-41v-87h-61v87h-148zM85 468h89v111zM486 39q42 8 78 27t55 51q-14 -8 -27.5 -10.5t-26.5 -2.5q-50 0 -79.5 33t-29.5 84q0 24 8.5 45.5t24.5 37.5t37 25.5t47 9.5q32 0 54.5 -11.5t37 -30.5
t21.5 -44.5t7 -52.5q0 -42 -14.5 -78t-40.5 -63t-61.5 -44.5t-78.5 -24.5zM579 152q25 0 50 13q1 8 1.5 16t0.5 17q0 16 -3 32.5t-9.5 29.5t-18 21.5t-28.5 8.5q-23 0 -38.5 -20t-15.5 -47q0 -31 13.5 -51t47.5 -20z" />
    <glyph glyph-name="fiveninths" unicode="&#xf50f;" horiz-adv-x="740" 
d="M69 -16l-38 44l638 642l44 -46zM69 418q9 -14 28 -24.5t43 -10.5q29 0 46.5 14.5t17.5 44.5q0 39 -27.5 54t-84.5 15h-38v154h190v-50h-136v-56h4q33 0 61 -5.5t49 -18.5t32.5 -34.5t11.5 -52.5q0 -29 -10 -51t-27 -36.5t-39 -21.5t-46 -7q-36 0 -65 12.5t-44 38.5z
M486 39q42 8 78 27t55 51q-14 -8 -27.5 -10.5t-26.5 -2.5q-50 0 -79.5 33t-29.5 84q0 24 8.5 45.5t24.5 37.5t37 25.5t47 9.5q32 0 54.5 -11.5t37 -30.5t21.5 -44.5t7 -52.5q0 -42 -14.5 -78t-40.5 -63t-61.5 -44.5t-78.5 -24.5zM579 152q25 0 50 13q1 8 1.5 16t0.5 17
q0 16 -3 32.5t-9.5 29.5t-18 21.5t-28.5 8.5q-23 0 -38.5 -20t-15.5 -47q0 -31 13.5 -51t47.5 -20z" />
    <glyph glyph-name="sevenninths" unicode="&#xf510;" horiz-adv-x="740" 
d="M69 -16l-38 44l638 642l44 -46zM86 336l125 277h-183v52h252v-38l-129 -291h-65zM486 39q42 8 78 27t55 51q-14 -8 -27.5 -10.5t-26.5 -2.5q-50 0 -79.5 33t-29.5 84q0 24 8.5 45.5t24.5 37.5t37 25.5t47 9.5q32 0 54.5 -11.5t37 -30.5t21.5 -44.5t7 -52.5
q0 -42 -14.5 -78t-40.5 -63t-61.5 -44.5t-78.5 -24.5zM579 152q25 0 50 13q1 8 1.5 16t0.5 17q0 16 -3 32.5t-9.5 29.5t-18 21.5t-28.5 8.5q-23 0 -38.5 -20t-15.5 -47q0 -31 13.5 -51t47.5 -20z" />
    <glyph glyph-name="eightninths" unicode="&#xf511;" horiz-adv-x="740" 
d="M69 -16l-38 44l638 642l44 -46zM38 473q11 21 34 34q-38 30 -38 74q0 22 10 39t26.5 29t37 18t41.5 6t41.5 -6t36.5 -17.5t26 -28.5t10 -38q0 -48 -37 -76q22 -13 32 -33.5t10 -42.5q0 -25 -10.5 -43.5t-27 -31t-38 -18.5t-43.5 -6q-23 0 -45 6t-39 18.5t-27 31t-10 42.5
q0 23 10 43zM90 431q0 -26 17.5 -37.5t41.5 -11.5q23 0 40 11t17 37q0 25 -17 39.5t-41 14.5q-23 0 -40.5 -14.5t-17.5 -38.5zM96 581q0 -24 15 -36t37 -12q23 0 38 12t15 36q0 23 -15 33.5t-37 10.5t-37.5 -11t-15.5 -33zM486 39q42 8 78 27t55 51q-14 -8 -27.5 -10.5
t-26.5 -2.5q-50 0 -79.5 33t-29.5 84q0 24 8.5 45.5t24.5 37.5t37 25.5t47 9.5q32 0 54.5 -11.5t37 -30.5t21.5 -44.5t7 -52.5q0 -42 -14.5 -78t-40.5 -63t-61.5 -44.5t-78.5 -24.5zM579 152q25 0 50 13q1 8 1.5 16t0.5 17q0 16 -3 32.5t-9.5 29.5t-18 21.5t-28.5 8.5
q-23 0 -38.5 -20t-15.5 -47q0 -31 13.5 -51t47.5 -20z" />
    <glyph glyph-name="a.smcp" unicode="&#xf605;" horiz-adv-x="489" 
d="M13 0l206 522h50l211 -522h-76l-63 154h-194l-59 -154h-75zM166 216h152l-76 199z" />
    <glyph glyph-name="b.smcp" unicode="&#xf606;" horiz-adv-x="462" 
d="M78 0v522h157q82 0 124.5 -35.5t42.5 -98.5q0 -44 -24.5 -71.5t-66.5 -38.5q23 -4 44.5 -13t38 -25t26.5 -39t10 -54q0 -34 -12.5 -61t-34 -46t-51.5 -29.5t-65 -10.5h-189zM149 61h119q38 0 62 21.5t24 66.5q0 94 -120 94h-85v-182zM149 305h82q46 0 71 23t25 62
q0 34 -22.5 52.5t-64.5 18.5h-91v-156z" />
    <glyph glyph-name="c.smcp" unicode="&#xf607;" horiz-adv-x="481" 
d="M456 101q-10 -18 -25 -38t-37 -36t-52 -26.5t-70 -10.5q-49 0 -90 15.5t-71 48t-46.5 83.5t-16.5 122q0 73 19 124.5t50 84.5t71 48.5t83 15.5q63 0 109.5 -29.5t72.5 -80.5l-62 -35q-7 14 -19 28t-28 25.5t-34.5 18.5t-39.5 7q-67 0 -105.5 -54t-38.5 -154
q0 -97 41 -151t107 -54q27 0 46.5 6.5t34.5 18t25.5 26t18.5 30.5z" />
    <glyph glyph-name="d.smcp" unicode="&#xf608;" horiz-adv-x="525" 
d="M74 0v522h130q35 0 74.5 -5t75.5 -21q58 -25 93 -81t35 -146q0 -95 -37 -153t-91 -86q-35 -19 -72 -24.5t-72 -5.5h-136zM146 61h53q38 0 71 5.5t59 22.5q39 26 58.5 67t19.5 113q0 63 -21 103t-57 63q-22 14 -54 20t-61 6h-68v-400z" />
    <glyph glyph-name="e.smcp" unicode="&#xf609;" horiz-adv-x="437" 
d="M78 0v522h324v-63h-250v-153h179v-63h-180v-182h271v-61h-344z" />
    <glyph glyph-name="f.smcp" unicode="&#xf60a;" horiz-adv-x="398" 
d="M78 0v522h315v-63h-241v-162h178v-63h-179v-234h-73z" />
    <glyph glyph-name="g.smcp" unicode="&#xf60b;" horiz-adv-x="507" 
d="M459 22q-42 -17 -86 -24.5t-90 -7.5q-48 0 -90.5 15.5t-74.5 48t-51 83.5t-19 122q0 73 18.5 124.5t49.5 84.5t71 48.5t83 15.5q38 0 66 -7.5t49.5 -21t37 -33.5t29.5 -44l-61 -33q-18 35 -47.5 55t-74.5 20q-29 0 -54.5 -12t-45.5 -37.5t-31.5 -65.5t-11.5 -95
q0 -49 12.5 -87t34 -64t50 -39.5t61.5 -13.5q32 0 57.5 3.5t42.5 8.5v126h-88v62h163v-232z" />
    <glyph glyph-name="h.smcp" unicode="&#xf60c;" horiz-adv-x="563" 
d="M78 0v522h74v-222h259v222h74v-522h-74v236h-259v-236h-74z" />
    <glyph glyph-name="i.smcp" unicode="&#xf60d;" horiz-adv-x="227" 
d="M75 0v522h74v-522h-74z" />
    <glyph glyph-name="j.smcp" unicode="&#xf60e;" horiz-adv-x="219" 
d="M-26 -48q54 11 77.5 34t23.5 65v471h74v-469q0 -71 -43.5 -111t-118.5 -51z" />
    <glyph glyph-name="k.smcp" unicode="&#xf60f;" horiz-adv-x="477" 
d="M78 0v522h74v-216l221 216h94l-211 -205l221 -317h-90l-185 267l-50 -51v-216h-74z" />
    <glyph glyph-name="l.smcp" unicode="&#xf610;" horiz-adv-x="417" 
d="M78 0v522h74v-458h250v-64h-324z" />
    <glyph glyph-name="m.smcp" unicode="&#xf611;" horiz-adv-x="638" 
d="M78 0v522h87l162 -392l151 392h87v-522h-71v376l-155 -385h-28l-161 386v-377h-72z" />
    <glyph glyph-name="n.smcp" unicode="&#xf612;" horiz-adv-x="565" 
d="M78 0v522h73l262 -377v377h74v-522h-55l-281 402v-402h-73z" />
    <glyph glyph-name="o.smcp" unicode="&#xf613;" horiz-adv-x="558" 
d="M172 13q-43 24 -70.5 62t-40.5 87t-13 100q0 50 13.5 98.5t42 86.5t72 61.5t103.5 23.5t104 -23.5t72 -61.5t41.5 -86.5t13.5 -98.5q0 -51 -13.5 -100t-42 -87t-73 -61.5t-105.5 -23.5q-60 0 -104 23zM163 118q19 -29 48 -47t68 -18q40 0 69 18t48 47t28 67t9 77t-9 75.5
t-27.5 65.5t-48 46.5t-69.5 17.5t-69 -17.5t-48 -46.5t-28 -65.5t-9 -75.5t9.5 -77t28.5 -67z" />
    <glyph glyph-name="p.smcp" unicode="&#xf614;" horiz-adv-x="460" 
d="M78 0v522h172q96 0 140.5 -42.5t44.5 -116.5q0 -75 -50 -115.5t-140 -40.5h-93v-207h-74zM150 268h102q48 0 77 22.5t29 73.5t-27.5 74t-78.5 23h-102v-193z" />
    <glyph glyph-name="q.smcp" unicode="&#xf615;" horiz-adv-x="558" 
d="M428 -107q-77 3 -122 25t-69 75q-50 8 -85.5 33.5t-58.5 62.5t-34 81.5t-11 91.5q0 50 13.5 98.5t41.5 86.5t72 61.5t104 23.5q61 0 104.5 -23.5t71.5 -61.5t41.5 -86.5t13.5 -98.5q0 -47 -11.5 -92t-35 -81.5t-59.5 -61.5t-86 -34q10 -22 41 -30.5t75 -9.5zM163 118
q19 -29 48 -47t68 -18q40 0 69 18t48 47t28 67t9 77t-9 76t-27.5 65.5t-48 46t-69.5 17.5t-69 -17.5t-48 -46t-28 -65.5t-9 -76t9.5 -77t28.5 -67z" />
    <glyph glyph-name="r.smcp" unicode="&#xf616;" horiz-adv-x="471" 
d="M78 0v522h178q92 0 135.5 -39.5t43.5 -104.5q0 -33 -10 -58.5t-28 -44t-42 -30t-52 -16.5l148 -229h-84l-145 225h-70v-225h-74zM150 286h101q52 0 79.5 23.5t27.5 68.5q0 42 -26.5 62.5t-74.5 20.5h-107v-175z" />
    <glyph glyph-name="s.smcp" unicode="&#xf617;" horiz-adv-x="415" 
d="M75 117q24 -32 56.5 -49t77.5 -17t72 20t27 66q0 19 -6.5 34t-21.5 28t-40 24.5t-62 23.5q-68 23 -104 55t-36 94q0 32 13.5 57.5t36.5 43t53.5 26.5t65.5 9q62 0 104.5 -22.5t68.5 -61.5l-54 -41q-22 28 -51 44.5t-67 16.5q-41 0 -68.5 -17.5t-27.5 -51.5q0 -33 25 -53
t88 -40q85 -27 121.5 -65.5t36.5 -102.5q0 -36 -14 -64t-39 -47t-58 -28.5t-72 -9.5q-60 0 -105 22t-75 64z" />
    <glyph glyph-name="t.smcp" unicode="&#xf618;" horiz-adv-x="440" 
d="M183 0v461h-168v61h410v-61h-168v-461h-74z" />
    <glyph glyph-name="u.smcp" unicode="&#xf619;" horiz-adv-x="551" 
d="M149 193q0 -66 34.5 -102.5t94.5 -36.5q61 0 95.5 35.5t34.5 98.5v334h73v-346q0 -45 -16 -80t-43.5 -58.5t-64.5 -35.5t-78 -12q-45 0 -82.5 12t-64.5 35.5t-42 58.5t-15 80v346h74v-329z" />
    <glyph glyph-name="v.smcp" unicode="&#xf61a;" horiz-adv-x="475" 
d="M214 0l-207 522h81l154 -398l147 398h79l-205 -522h-49z" />
    <glyph glyph-name="w.smcp" unicode="&#xf61b;" horiz-adv-x="642" 
d="M148 0l-136 522h75l95 -378l116 378h46l118 -382l94 382h74l-136 -522h-48l-126 393l-124 -393h-48z" />
    <glyph glyph-name="x.smcp" unicode="&#xf61c;" horiz-adv-x="444" 
d="M4 0l172 268l-155 254h87l113 -197l117 197h83l-158 -250l174 -272h-84l-135 214l-132 -214h-82z" />
    <glyph glyph-name="y.smcp" unicode="&#xf61d;" horiz-adv-x="465" 
d="M195 0v250l-185 272h83l140 -213l147 213h80l-191 -272v-250h-74z" />
    <glyph glyph-name="z.smcp" unicode="&#xf61e;" horiz-adv-x="469" 
d="M43 0v62l300 395h-284v65h364v-71l-292 -387h303v-64h-391z" />
    <glyph glyph-name="ae.smcp" unicode="&#xf61f;" horiz-adv-x="699" 
d="M3 0l314 522h345v-63h-236v-153h163v-63h-163v-182h253v-61h-330v159h-174l-94 -159h-78zM208 218h141v243z" />
    <glyph glyph-name="eng.smcp" unicode="&#xf620;" horiz-adv-x="565" 
d="M78 0v522h73l262 -377v377h74v-522q0 -77 -29 -122.5t-80 -74.5l-38 55q18 13 31.5 26.5t21.5 29.5t12 36.5t4 47.5v35l-258 369v-402h-73z" />
    <glyph glyph-name="oe.smcp" unicode="&#xf621;" horiz-adv-x="726" 
d="M339 0q-142 0 -218 70t-76 197q0 61 21 109t59.5 80t93.5 49t124 17h344v-63h-235v-153h164v-63h-164v-182h254v-61h-367zM375 61v400h-50q-100 0 -152 -49.5t-52 -146.5q0 -102 59 -153t162 -51h33z" />
    <glyph glyph-name="eth.smcp" unicode="&#xf622;" horiz-adv-x="529" 
d="M80 0v239h-63v61h63v222h146q32 0 67 -4.5t64 -18.5q30 -14 55 -35t43 -49.5t28.5 -64.5t10.5 -81q0 -54 -13.5 -97.5t-37.5 -75.5t-56 -53.5t-69 -32.5q-18 -5 -44.5 -7.5t-47.5 -2.5h-146zM157 61h61q17 0 39 1.5t41 9.5q24 9 45 24.5t36.5 39t25 55.5t9.5 74
q0 66 -21.5 106t-57.5 63q-22 14 -53 20.5t-60 6.5h-65v-161h126v-61h-126v-178z" />
    <glyph glyph-name="hbar.smcp" unicode="&#xf623;" horiz-adv-x="563" 
d="M78 0v379h-57v62h57v81h74v-81h259v81h74v-81h58v-62h-58v-379h-74v236h-259v-236h-74zM152 300h259v79h-259v-79z" />
    <glyph glyph-name="ij.smcp" unicode="&#xf624;" horiz-adv-x="427" 
d="M75 0v522h74v-522h-74zM182 -48q54 11 77.5 34t23.5 65v471h74v-469q0 -71 -43.5 -111t-118.5 -51z" />
    <glyph glyph-name="idotaccent.smcp" unicode="&#xf625;" horiz-adv-x="227" 
d="M75 0v522h74v-522h-74zM115 585q-23 0 -38.5 17.5t-15.5 43.5q0 25 15.5 42.5t38.5 17.5t38.5 -17.5t15.5 -42.5q0 -26 -15.5 -43.5t-38.5 -17.5z" />
    <glyph glyph-name="dotlessi.smcp" unicode="&#xf626;" horiz-adv-x="227" 
d="M75 0v522h74v-522h-74z" />
    <glyph glyph-name="oslash.smcp" unicode="&#xf627;" horiz-adv-x="542" 
d="M54 24l40 50q-29 38 -43 87.5t-14 100.5q0 50 14 98.5t42.5 86.5t73 61.5t104.5 23.5q46 0 82 -14t64 -37l41 51l45 -36l-47 -59q25 -38 37 -82.5t12 -92.5q0 -51 -14 -100t-42.5 -87t-72.5 -61.5t-105 -23.5q-42 0 -76 11.5t-61 31.5l-35 -44zM373 425q-19 21 -44 33
t-58 12q-40 0 -69 -18t-48 -47.5t-28 -66.5t-9 -76q0 -33 6 -65.5t20 -59.5zM178 88q18 -17 41 -26.5t52 -9.5q40 0 69 18t48 47.5t28 67.5t9 77q0 29 -4.5 57t-15.5 54z" />
    <glyph glyph-name="thorn.smcp" unicode="&#xf628;" horiz-adv-x="438" 
d="M59 0v522h77v-91h91q191 0 191 -159q0 -78 -52 -117t-145 -39h-85v-116h-77zM136 178h94q53 0 84 21t31 74q0 51 -32.5 72.5t-83.5 21.5h-93v-189z" />
    <glyph glyph-name="tbar.smcp" unicode="&#xf629;" horiz-adv-x="440" 
d="M183 0v246h-120v61h120v154h-168v61h410v-61h-168v-154h117v-61h-117v-246h-74z" />
    </font>
</defs>
</svg>
